<?xml version="1.0" standalone="no"?>
<!DOCTYPE svg PUBLIC "-//W3C//DTD SVG 1.1//EN" "http://www.w3.org/Graphics/SVG/1.1/DTD/svg11.dtd" >
<svg xmlns="http://www.w3.org/2000/svg" xmlns:xlink="http://www.w3.org/1999/xlink" version="1.1">
<metadata>
Created by FontForge 20201107 at Wed Jul  8 16:02:29 2020
 By 
Copyright 2010 The Raleway Project Authors (impallari@gmail.com), with Reserved Font Name "Raleway".
</metadata>
<defs>
<font id="Raleway-ThinItalic" horiz-adv-x="0" >
  <font-face 
    font-family="Raleway Thin"
    font-weight="250"
    font-style="italic"
    font-stretch="normal"
    units-per-em="1000"
    panose-1="0 0 0 0 0 0 0 0 0 0"
    ascent="800"
    descent="-200"
    x-height="519"
    cap-height="710"
    bbox="-275 -224 1334 1151"
    underline-thickness="50"
    underline-position="-125"
    slope="-12"
    unicode-range="U+000D-FB06"
  />
<missing-glyph horiz-adv-x="608" 
d="M558 29q0 -29 -33 -29h-448q-16 0 -21.5 6t-5.5 19v662q0 23 19 23h471q18 0 18 -21v-660zM506 74v568q0 18 -15 18h-373q-16 0 -16 -19v-570q0 -10 5 -15.5t18 -5.5h353q28 0 28 24zM478 28l-407 641l52 27l415 -663z" />
    <glyph glyph-name="f_f" unicode="ff" horiz-adv-x="520" 
d="M33 0l106 499h-71l4 20h72l2 11q8 41 29.5 80t58 64.5t87.5 25.5q32 0 55.5 -9t32.5 -17q26 30 58.5 48t75.5 18q33 0 49.5 -8t22 -16t5.5 -10l-18 -12q-3 5 -14 15.5t-46 10.5q-52 0 -89 -28t-58.5 -69.5t-29.5 -82.5l-4 -21h175l-4 -20h-176l-106 -499h-20l106 499
h-177l-106 -499h-20zM163 519h177q9 50 22.5 80t32.5 57q-13 15 -37.5 19.5t-39.5 4.5q-36 0 -62.5 -15t-44.5 -38.5t-28.5 -49t-16.5 -47.5z" />
    <glyph glyph-name="fi" unicode="fi" horiz-adv-x="431" 
d="M139 499h-71l4 20h72l4 21q6 32 21 66.5t39.5 65t58.5 49.5t78 19q34 0 58 -8t36.5 -16t12.5 -10l-18 -12q-7 9 -32 17.5t-62 8.5q-48 0 -84 -28t-58 -69.5t-30 -82.5l-4 -21h232l-110 -519h-20l106 499h-213l-106 -499h-20z" />
    <glyph glyph-name="fl" unicode="fl" horiz-adv-x="498" 
d="M370 -5q-30 0 -45 18t-15 43q0 5 0.5 10.5t1.5 10.5l114 536q2 6 2.5 12.5t0.5 12.5q0 32 -22.5 57t-75.5 25q-45 0 -78.5 -27.5t-55 -68.5t-29.5 -84l-4 -21h118l-5 -20h-118l-106 -499h-20l106 499h-71l4 20h72l4 21q11 55 34.5 100t62 72.5t90.5 27.5q56 0 85 -27.5
t29 -69.5q0 -7 -0.5 -14t-2.5 -15l-114 -537q-1 -4 -1.5 -7.5t-0.5 -6.5q0 -19 11 -34t34 -15q13 0 26.5 2t23.5 4.5l10 2.5l5 -19l-11 -2.5t-26.5 -4.5t-32.5 -2z" />
    <glyph glyph-name="f_f_i" unicode="ffi" horiz-adv-x="628" 
d="M33 0l106 499h-71l4 20h71l2 10q8 41 30 80t58.5 65t88.5 26q32 0 55 -9t32 -17q26 30 58.5 48t76.5 18q32 0 55.5 -8t36.5 -16t13 -10l-18 -12q-6 9 -32.5 17.5t-56.5 8.5q-52 0 -89 -28t-58.5 -69.5t-29.5 -82.5l-4 -21h233l-111 -519h-20l106 499h-213l-106 -499h-20
l106 499h-177l-106 -499h-20zM163 519h177q10 43 23 76.5t32 60.5q-13 15 -37.5 19.5t-39.5 4.5q-48 0 -80 -25.5t-49.5 -60.5t-23.5 -65z" />
    <glyph glyph-name="f_f_l" unicode="ffl" horiz-adv-x="700" 
d="M577 -5q-34 0 -49.5 17.5t-15.5 43.5q0 5 0.5 10.5t1.5 10.5l114 536q2 6 2.5 12t0.5 12q0 35 -22.5 59t-69.5 24q-49 0 -84 -27t-55.5 -68.5t-29.5 -84.5l-4 -21h118l-5 -20h-118l-106 -499h-20l106 499h-182l-106 -499h-20l106 499h-71l4 20h71l2 9q11 49 35.5 88
t61.5 61.5t87 22.5q34 0 52 -8.5t27 -16.5q23 30 55 47.5t75 17.5q56 0 84.5 -28t28.5 -70q0 -7 -0.5 -13.5t-2.5 -14.5l-114 -537q-1 -4 -1.5 -7.5t-0.5 -7.5q0 -18 11 -33t37 -15q11 0 23.5 2t22.5 4.5t11 2.5l5 -19q-1 0 -12 -2.5t-25.5 -4.5t-27.5 -2zM163 519h182
q11 48 22 80.5t27 57.5q-13 14 -32 18.5t-36 4.5q-47 0 -80 -23t-53 -57.5t-28 -71.5z" />
    <glyph glyph-name=".notdef" horiz-adv-x="608" 
d="M558 29q0 -29 -33 -29h-448q-16 0 -21.5 6t-5.5 19v662q0 23 19 23h471q18 0 18 -21v-660zM506 74v568q0 18 -15 18h-373q-16 0 -16 -19v-570q0 -10 5 -15.5t18 -5.5h353q28 0 28 24zM478 28l-407 641l52 27l415 -663z" />
    <glyph glyph-name=".null" 
 />
    <glyph glyph-name="nonmarkingreturn" horiz-adv-x="333" 
 />
    <glyph glyph-name="NULL" 
 />
    <glyph glyph-name="NULL" 
 />
    <glyph glyph-name="CR" unicode="&#xd;" 
 />
    <glyph glyph-name="space" unicode=" " horiz-adv-x="255" 
 />
    <glyph glyph-name="exclam" unicode="!" horiz-adv-x="224" 
d="M81 200l109 517h20l-109 -517h-20zM38 0l18 84h25l-23 -84h-20z" />
    <glyph glyph-name="quotedbl" unicode="&#x22;" horiz-adv-x="212" 
d="M127 570l30 140h20l-30 -140h-20zM175 570l30 140h20l-30 -140h-20z" />
    <glyph glyph-name="numbersign" unicode="#" horiz-adv-x="623" 
d="M623 481h-112l-106 -240h129l-4 -20h-134l-97 -221h-21l98 221h-227l-97 -221h-21l98 221h-107l4 20h113l105 240h-129l5 20h134l92 209h21l-94 -209h227l93 209h21l-94 -209h107zM385 241l106 240h-227l-106 -240h227z" />
    <glyph glyph-name="dollar" unicode="$" horiz-adv-x="589" 
d="M225 0h19l-19 -93h-20zM226 5l149 701l20 2l-150 -704zM398 815h20l-24 -111l-20 -2zM561 616q-15 23 -32 38.5t-37.5 24.5t-45 13t-54.5 4q-92 0 -149 -27t-83 -72.5t-26 -101.5q0 -38 20 -61.5t60.5 -39t101.5 -29.5q63 -14 110 -32t73 -47t26 -78q0 -50 -20 -89.5
t-57 -67t-88.5 -42t-114.5 -14.5q-81 0 -139 27t-100 83l17 13q20 -28 43.5 -48t51.5 -33t60.5 -19t71.5 -6q116 0 185 48.5t69 142.5q0 41 -21 67.5t-63.5 44t-107.5 31.5q-63 13 -107.5 29t-68 43.5t-23.5 72.5q0 52 20.5 93.5t58 70.5t89 44.5t113.5 15.5q43 0 77 -8.5
t60 -27t46 -49.5z" />
    <glyph glyph-name="percent" unicode="%" horiz-adv-x="644" 
d="M210 444q-47 0 -76 33t-29 80q0 44 23.5 81t61.5 59.5t79 22.5q47 0 76 -33t29 -80q0 -43 -24 -80.5t-61.5 -60t-78.5 -22.5zM214 464q36 0 68 20t52 52t20 67q0 41 -26 69t-64 28q-35 0 -67 -20t-52 -51.5t-20 -67.5q0 -41 25 -69t64 -28zM398 -10q-46 0 -75.5 32.5
t-29.5 80.5q0 44 24 81t61.5 59.5t78.5 22.5q47 0 76 -33t29 -80q0 -44 -23.5 -81t-61 -59.5t-79.5 -22.5zM402 10q36 0 68 19.5t52 51.5t20 67q0 41 -25.5 69.5t-63.5 28.5q-35 0 -67.5 -20t-52.5 -52t-20 -68q0 -40 24.5 -68t64.5 -28zM-13 11l326 336l353 364l13 -12
l-354 -365l-325 -335z" />
    <glyph glyph-name="ampersand" unicode="&#x26;" horiz-adv-x="668" 
d="M188 -10q-49 0 -87 21t-59.5 58.5t-21.5 86.5q0 35 11.5 68.5t37.5 65.5t68 63.5t102 64.5l13 -15q-73 -40 -119.5 -79.5t-68.5 -80t-22 -85.5q0 -65 41.5 -106t107.5 -41q57 0 112 31t102 86.5t81 129t50 158.5h22q-17 -90 -53.5 -167.5t-86.5 -135.5t-109 -90.5
t-121 -32.5zM254 367q-33 49 -53 82.5t-28.5 58t-8.5 46.5q0 44 27.5 81.5t72.5 60.5t96 23q36 0 66.5 -12.5t54.5 -36t38 -56.5l-14 -12q-19 47 -58.5 73t-89.5 26q-45 0 -84.5 -20.5t-64 -54t-24.5 -71.5q0 -18 6.5 -38.5t20.5 -45.5t35 -56l290 -415h-29zM546 416h110
l-4 -20h-110z" />
    <glyph glyph-name="quotesingle" unicode="'" horiz-adv-x="163" 
d="M127 569l30 141h20l-30 -141h-20z" />
    <glyph glyph-name="parenleft" unicode="(" horiz-adv-x="228" 
d="M49 256q0 90 30 168t80 152t109 150l13 -12q-35 -41 -72.5 -94t-69 -113t-51 -122t-19.5 -121q0 -41 6.5 -90t19 -97.5t31.5 -90.5l-18 -12q-19 44 -32.5 92.5t-20 97t-6.5 92.5z" />
    <glyph glyph-name="parenright" unicode=")" horiz-adv-x="228" 
d="M198 433q0 -59 -14.5 -115.5t-42.5 -113t-68 -113.5t-92 -117l-13 12q63 71 110 145t73 148t26 145q0 49 -7 103t-19.5 103t-27.5 84l18 12q24 -67 40.5 -143t16.5 -150z" />
    <glyph glyph-name="asterisk" unicode="*" horiz-adv-x="293" 
d="M144 564l51 57l-59 22l10 19l59 -22l15 70h19l-15 -70l70 22v-19l-68 -22l28 -57l-19 -12l-27 57l-51 -57z" />
    <glyph glyph-name="plus" unicode="+" horiz-adv-x="410" 
d="M365 365v-20h-140v-150h-20v150h-140v20h140v150h20v-150h140z" />
    <glyph glyph-name="comma" unicode="," horiz-adv-x="207" 
d="M32 -81l25 71h-9l16 74h26l-16 -74l-28 -71h-14z" />
    <glyph glyph-name="hyphen" unicode="-" horiz-adv-x="404" 
d="M59 261l4 20h269l-4 -20h-269z" />
    <glyph glyph-name="period" unicode="." horiz-adv-x="159" 
d="M8 0l14 64h19l-13 -64h-20z" />
    <glyph glyph-name="slash" unicode="/" horiz-adv-x="531" 
d="M583 710l-584 -710h-25l584 710h25z" />
    <glyph glyph-name="zero" unicode="0" horiz-adv-x="587" 
d="M227 -10q-55 0 -95 29.5t-61.5 81.5t-21.5 119q0 78 25 146t68 120t98.5 81.5t115.5 29.5q56 0 96 -29.5t61.5 -81.5t21.5 -119q0 -78 -25 -146.5t-68 -120t-98.5 -81t-116.5 -29.5zM232 10q57 0 108.5 27.5t90.5 76t61.5 113t22.5 139.5q0 94 -43 152.5t-120 58.5
q-57 0 -108.5 -27.5t-90.5 -76.5t-61.5 -113.5t-22.5 -139.5q0 -94 43 -152t120 -58z" />
    <glyph glyph-name="one" unicode="1" horiz-adv-x="353" 
d="M6 20h135l110 518q-10 -12 -31 -26.5t-47 -28t-51.5 -22.5t-45.5 -9l5 24q26 0 56 14t57 32t45 33t19 16h20l-117 -551h121l-4 -20h-276z" />
    <glyph glyph-name="two" unicode="2" horiz-adv-x="477" 
d="M-7 0q4 18 15 51.5t35 73t64.5 76.5t103.5 62q60 24 101.5 44t67 41t37 46t11.5 59q0 27 -13 51.5t-41.5 40.5t-73.5 16q-36 0 -66.5 -11.5t-54.5 -27t-39.5 -29.5t-20.5 -19l-13 12l15 14.5t42 33.5t63 33t78 14q50 0 82 -18t47.5 -46.5t15.5 -60.5q0 -39 -13 -67
t-40.5 -50.5t-72 -45t-108.5 -49.5q-54 -22 -90.5 -54.5t-59.5 -66.5t-34 -61.5t-14 -41.5h352l-5 -20h-371z" />
    <glyph glyph-name="three" unicode="3" horiz-adv-x="490" 
d="M146 -147q-70 0 -116.5 35t-54.5 93l20 7q5 -52 48 -83.5t109 -31.5q64 0 114.5 27.5t79.5 76.5t29 111q0 64 -39.5 101.5t-113.5 37.5h-21l4 20h22q65 0 111.5 21.5t71 61t24.5 92.5q0 60 -38 97t-101 37q-60 0 -112 -31t-82 -82l-16 7q21 38 54.5 66.5t75 44t84.5 15.5
q71 0 113.5 -42t42.5 -107q0 -49 -23 -90t-62.5 -67.5t-90.5 -33.5q55 -8 85 -49t30 -100q0 -67 -33.5 -120t-90 -83.5t-124.5 -30.5z" />
    <glyph glyph-name="four" unicode="4" horiz-adv-x="499" 
d="M319 72h-346l4 17l454 482h14l-102 -479h84l-4 -20h-84l-42 -199h-20zM323 92l94 442l-412 -442h318z" />
    <glyph glyph-name="five" unicode="5" horiz-adv-x="522" 
d="M159 -149q-71 0 -119.5 40.5t-62.5 105.5h21q14 -56 58 -91t107 -35q48 0 93.5 19t82 53t57.5 79.5t21 98.5q0 73 -45 119t-116 46q-53 0 -107 -25.5t-95 -72.5h-24q5 12 18.5 44.5t31 76t36 89t34.5 85t26 64l10 24.5h320l-4 -20h-304l-130 -325q42 39 92.5 59.5
t100.5 20.5q52 0 91.5 -23t62 -64t22.5 -95q0 -60 -24 -109.5t-64 -86.5t-89.5 -57t-100.5 -20z" />
    <glyph glyph-name="six" unicode="6" horiz-adv-x="581" 
d="M237 -10q56 0 108 22.5t93 62.5t65.5 91.5t24.5 109.5q0 56 -23 101t-64.5 71.5t-96.5 26.5q-54 0 -106 -20t-94 -57.5t-67 -89.5q21 114 66.5 201.5t108.5 136.5t137 49q62 0 102.5 -37t45.5 -97l20 7q-6 68 -50.5 107.5t-113.5 39.5q-76 0 -139.5 -43t-109 -116.5
t-70.5 -165t-25 -188.5q0 -98 52 -155t136 -57zM243 10q-50 0 -89 24.5t-61 66.5t-22 93t22.5 98t60.5 84t85.5 58t96.5 21q50 0 88.5 -25t60.5 -67t22 -93q0 -52 -22.5 -99t-60 -83t-84.5 -57t-97 -21z" />
    <glyph glyph-name="seven" unicode="7" horiz-adv-x="510" 
d="M503 563h-404l4 20h438l-497 -710h-23z" />
    <glyph glyph-name="eight" unicode="8" horiz-adv-x="557" 
d="M210 -7q-59 0 -100.5 23t-63 61t-21.5 82q0 58 31 103.5t77 76t92 42.5q-42 17 -71 51t-29 83q0 47 21.5 83t57 61t78 38t84.5 13q44 0 82.5 -16.5t62 -48t23.5 -76.5q0 -48 -24.5 -85t-63 -62.5t-81.5 -40.5q53 -17 86.5 -59.5t33.5 -101.5q0 -51 -23.5 -92.5t-63 -72
t-88.5 -46.5t-100 -16zM218 10q41 0 84 15t80 42.5t60 66t23 85.5q0 48 -25.5 82t-65 52t-82.5 18q-41 0 -84 -15t-80 -43t-60 -66.5t-23 -85.5q0 -48 25.5 -81.5t65.5 -51.5t82 -18zM297 391q35 0 72.5 11.5t70.5 34t53.5 55t20.5 73.5q0 40 -21.5 67.5t-56.5 42.5t-76 15
q-51 0 -100.5 -21t-82 -60t-32.5 -92q0 -40 22.5 -68.5t57.5 -43t72 -14.5z" />
    <glyph glyph-name="nine" unicode="9" horiz-adv-x="565" 
d="M173 -156q77 0 140 43t108.5 116.5t70.5 165t25 188.5q0 98 -52 155t-136 57q-55 0 -107.5 -22.5t-93.5 -62.5t-65.5 -91.5t-24.5 -109.5q0 -55 23 -100.5t64.5 -72t96.5 -26.5q54 0 106 20t94 57.5t67 89.5q-21 -114 -66.5 -201t-108.5 -136.5t-137 -49.5q-61 0 -102 37
t-46 97l-20 -7q6 -67 50.5 -107t113.5 -40zM230 104q-50 0 -88.5 25t-60.5 67t-22 93q0 52 22.5 99t60 83t85 57t96.5 21q51 0 89.5 -25t60.5 -66.5t22 -92.5t-22.5 -98t-60.5 -84t-85 -58t-97 -21z" />
    <glyph glyph-name="colon" unicode=":" horiz-adv-x="155" 
d="M99 453l14 64h20l-14 -64h-20zM3 0l14 64h19l-13 -64h-20z" />
    <glyph glyph-name="semicolon" unicode=";" horiz-adv-x="161" 
d="M102 453l14 64h20l-14 -64h-20zM-14 -81l25 71h-9l16 74h25l-16 -74l-27 -71h-14z" />
    <glyph glyph-name="less" unicode="&#x3c;" horiz-adv-x="541" 
d="M31 268l417 249v-22l-388 -236l388 -237v-22l-417 250v18z" />
    <glyph glyph-name="equal" unicode="=" horiz-adv-x="453" 
d="M74 231v20h293v-20h-293zM74 301v20h293v-20h-293z" />
    <glyph glyph-name="greater" unicode="&#x3e;" horiz-adv-x="541" 
d="M492 250l-417 -250v22l388 237l-388 236v22l417 -249v-18z" />
    <glyph glyph-name="question" unicode="?" horiz-adv-x="449" 
d="M142 179q14 64 32 100t40.5 55.5t48.5 31.5q30 15 61.5 28.5t58.5 34t43.5 54.5t16.5 89q0 65 -38 96t-89 31q-38 0 -76.5 -14.5t-72 -40.5t-57.5 -62l-16 8q27 42 64.5 70.5t79.5 43.5t81 15q40 0 72.5 -16.5t52 -49.5t19.5 -81q0 -58 -17.5 -94t-46 -59t-63 -39
t-68.5 -33q-23 -11 -42.5 -27.5t-35 -49t-28.5 -91.5h-20zM104 0l18 84h20l-18 -84h-20z" />
    <glyph glyph-name="at" unicode="@" horiz-adv-x="791" 
d="M540 4q32 0 62 25.5t53.5 68t37.5 95t14 107.5q0 63 -19.5 115t-54.5 89.5t-82.5 58t-104.5 20.5q-76 0 -147.5 -35t-128.5 -95.5t-90.5 -136.5t-33.5 -158q0 -81 33.5 -145.5t93 -101.5t135.5 -37q36 0 73 9.5t75 28.5l6 -18q-41 -19 -84 -29.5t-81 -10.5
q-78 0 -139.5 40.5t-96.5 109t-35 153.5q0 69 23.5 134.5t64.5 122t94.5 99t115 66.5t125.5 24q59 0 110 -21.5t88.5 -61t58.5 -94.5t21 -123q0 -47 -10 -93t-28.5 -87t-43.5 -72t-54 -49t-61 -18q-27 0 -39 14.5t-12 45.5q0 8 1 19t3 21q-34 -33 -78 -52.5t-85 -19.5
q-42 0 -74 21.5t-50 60.5t-18 90q0 53 19 100.5t52 84.5t75.5 58.5t89.5 21.5t81 -22.5t50 -64.5l18 88h20l-75 -351q-4 -22 -5.5 -34t-1.5 -18q0 -22 10 -32.5t29 -10.5zM325 32q34 0 69 14.5t63 39t40 53.5l40 195q-13 44 -46 69t-80 25q-42 0 -80 -19.5t-68 -53.5
t-47.5 -77.5t-17.5 -91.5q0 -44 15.5 -79t44.5 -55t67 -20z" />
    <glyph glyph-name="A" unicode="A" horiz-adv-x="647" 
d="M406 710h18l142 -710h-22l-51 254h-351l-159 -254h-22zM489 274l-80 407l-255 -407h335z" />
    <glyph glyph-name="B" unicode="B" horiz-adv-x="628" 
d="M184 710h299q40 0 66.5 -21t40 -54t13.5 -70q0 -43 -18 -83t-49 -70.5t-70 -47.5q44 -15 68 -55.5t24 -90.5q0 -43 -18 -82t-49 -69.5t-68.5 -48.5t-76.5 -18h-313zM350 20q35 0 68.5 16.5t60 45t42.5 63t16 70.5t-13.5 66t-38 48.5t-59.5 18.5h-299l-70 -328h293z
M404 368q35 0 67 17t57.5 45t40 62.5t14.5 69.5q0 52 -27.5 90t-77.5 38h-278l-69 -322h273z" />
    <glyph glyph-name="C" unicode="C" horiz-adv-x="663" 
d="M307 -6q-61 0 -108.5 25t-80 67t-49.5 94.5t-17 107.5q0 60 19.5 120.5t55 115.5t85 97.5t110.5 67.5t130 25q92 0 145.5 -43.5t69.5 -111.5l-20 -6q-15 52 -44 83t-68 44.5t-84 13.5q-80 0 -149 -36.5t-120.5 -96.5t-80.5 -132.5t-29 -144.5q0 -71 28.5 -133t81.5 -99.5
t128 -37.5q44 0 92 15.5t94.5 48.5t83.5 86l18 -5q-34 -54 -83 -91t-103 -55.5t-105 -18.5z" />
    <glyph glyph-name="D" unicode="D" horiz-adv-x="684" 
d="M184 710h217q87 0 142.5 -36t82.5 -97t27 -137q0 -94 -30 -174.5t-84 -140t-128 -92.5t-161 -33h-217zM254 20q89 0 159 33.5t119 92t75 133t26 156.5q0 75 -26.5 132.5t-79 90t-130.5 32.5h-197l-143 -670h197z" />
    <glyph glyph-name="E" unicode="E" horiz-adv-x="588" 
d="M184 710h434l-4 -20h-414l-68 -317h363l-4 -20h-363l-71 -333h423l-4 -20h-443z" />
    <glyph glyph-name="F" unicode="F" horiz-adv-x="588" 
d="M184 710h434l-4 -20h-414l-67 -316h353l-4 -20h-354l-75 -354h-20z" />
    <glyph glyph-name="G" unicode="G" horiz-adv-x="688" 
d="M301 -5q-61 0 -108 25t-78 67.5t-47 96t-16 109.5q0 81 30.5 156.5t84.5 135.5t126.5 95t157.5 35q95 0 148 -43.5t69 -111.5l-20 -6q-21 71 -70 106t-127 35q-82 0 -151.5 -34.5t-120.5 -93t-79 -129.5t-28 -145t29 -137.5t82.5 -102t126.5 -38.5q66 0 136 36.5
t146 114.5l-6 -30q-69 -70 -142 -105.5t-143 -35.5zM613 318h-158l4 20h178l-72 -338h-20z" />
    <glyph glyph-name="H" unicode="H" horiz-adv-x="701" 
d="M184 710h20l-72 -337h467l72 337h20l-151 -710h-20l75 353h-467l-75 -353h-20z" />
    <glyph glyph-name="I" unicode="I" horiz-adv-x="214" 
d="M184 709h20l-151 -709h-20z" />
    <glyph glyph-name="J" unicode="J" horiz-adv-x="458" 
d="M110 -11q-49 0 -81.5 12t-60.5 32l14 16q23 -18 55.5 -30t76.5 -12q60 0 100 24t66.5 68.5t45 107.5t35.5 142l77 360h20l-77 -360q-18 -85 -37.5 -151.5t-48 -113t-73 -71t-112.5 -24.5z" />
    <glyph glyph-name="K" unicode="K" horiz-adv-x="591" 
d="M184 709h20l-98 -460l526 461h29l-354 -310l216 -400h-24l-208 387l-191 -166l-47 -221h-20z" />
    <glyph glyph-name="L" unicode="L" horiz-adv-x="552" 
d="M184 710h20l-147 -690h423l-4 -20h-443z" />
    <glyph glyph-name="M" unicode="M" horiz-adv-x="846" 
d="M184 710h16l194 -546l426 546h16l-151 -710h-20l141 666l-409 -526h-16l-186 526l-142 -666h-20z" />
    <glyph glyph-name="N" unicode="N" horiz-adv-x="743" 
d="M184 710h15l370 -681l144 680h20l-151 -709h-22l-364 671l-143 -671h-20z" />
    <glyph glyph-name="O" unicode="O" horiz-adv-x="726" 
d="M305 -5q-67 0 -115 24t-78.5 65t-45 92.5t-14.5 107.5q0 69 20 133t56.5 118.5t85.5 94.5t107.5 62.5t121.5 22.5q67 0 115 -24.5t79 -65.5t45.5 -93t14.5 -108q0 -69 -20 -132.5t-56.5 -117.5t-86 -94t-107.5 -62.5t-122 -22.5zM308 15q78 0 145.5 34.5t117.5 92.5
t78 131t28 151q0 71 -24.5 133t-76.5 100t-135 38q-78 0 -145 -34t-117.5 -92.5t-78.5 -132t-28 -151.5q0 -71 24.5 -132.5t76.5 -99.5t135 -38z" />
    <glyph glyph-name="P" unicode="P" horiz-adv-x="595" 
d="M184 710h268q50 0 85 -25.5t53 -65.5t18 -85q0 -46 -18.5 -91.5t-51 -82.5t-75 -59t-89.5 -22h-262l-59 -279h-20zM378 299q44 0 82.5 21.5t67 56.5t44.5 76.5t16 82.5t-16.5 76t-46.5 56.5t-71 21.5h-254l-83 -391h261z" />
    <glyph glyph-name="Q" unicode="Q" horiz-adv-x="725" 
d="M305 -5q-67 0 -115 24t-78.5 65t-45 92.5t-14.5 107.5q0 69 20 133t56.5 118.5t85.5 94.5t107.5 62.5t121.5 22.5q67 0 115 -24.5t79 -65.5t45.5 -93t14.5 -108q0 -69 -20 -132.5t-56.5 -117.5t-86 -94t-107.5 -62.5t-122 -22.5zM554 0l-102 186h25l102 -186h-25zM308 15
q78 0 145.5 34.5t117.5 92.5t78 131t28 151q0 71 -24.5 133t-76.5 100t-135 38q-78 0 -145 -34t-117.5 -92.5t-78.5 -132t-28 -151.5q0 -71 24.5 -132.5t76.5 -99.5t135 -38z" />
    <glyph glyph-name="R" unicode="R" horiz-adv-x="616" 
d="M33 0l151 710h275q47 0 80.5 -25.5t51 -66t17.5 -85.5q0 -46 -17.5 -89.5t-48.5 -79.5t-71 -59t-85 -26l111 -279h-24l-111 279h-250l-59 -279h-20zM378 299q44 0 82 20.5t67 54.5t45 75t16 81q0 43 -16.5 79t-46.5 58.5t-71 22.5h-254l-83 -391h261z" />
    <glyph glyph-name="S" unicode="S" horiz-adv-x="579" 
d="M244 -5q-84 0 -140.5 26.5t-104.5 83.5l16 13q21 -25 44.5 -44.5t51.5 -33t61.5 -20.5t75.5 -7q75 0 131 22t87 64t31 100q0 47 -21 73t-63.5 42t-107.5 32q-64 16 -108.5 30.5t-67.5 41t-23 78.5q0 49 19.5 89t55.5 69t86 45t111 16q45 0 80.5 -9t63 -28t48.5 -48
l-16 -14q-16 22 -34 37.5t-39.5 25t-46 13.5t-54.5 4q-82 0 -138.5 -27t-85.5 -72t-29 -99q0 -43 19.5 -66t59.5 -37t103 -30q71 -18 117.5 -35.5t69 -46.5t22.5 -82q0 -52 -20.5 -91t-57.5 -64.5t-87 -38t-109 -12.5z" />
    <glyph glyph-name="T" unicode="T" horiz-adv-x="574" 
d="M356 690h-258l4 20h536l-4 -20h-258l-147 -690h-20z" />
    <glyph glyph-name="U" unicode="U" horiz-adv-x="723" 
d="M298 -5q-81 0 -128 31.5t-67 83.5t-20 115q0 32 4 64.5t11 65.5l75 355h20l-75 -355q-7 -32 -11 -63.5t-4 -63.5q0 -59 17.5 -107.5t60.5 -77t117 -28.5q76 0 133 29.5t96.5 79t64.5 110t38 121.5l75 355h20l-75 -355q-15 -72 -43 -137t-70.5 -115t-101.5 -79t-137 -29z
" />
    <glyph glyph-name="V" unicode="V" horiz-adv-x="644" 
d="M101 710h21l138 -685l427 685h22l-444 -710h-22z" />
    <glyph glyph-name="W" unicode="W" horiz-adv-x="986" 
d="M101 710h22l137 -685l242 389l-59 290h22l52 -266l167 266h22l-183 -290l79 -389l427 685h22l-444 -710h-22l-77 389l-243 -389h-22z" />
    <glyph glyph-name="X" unicode="X" horiz-adv-x="588" 
d="M292 350l-196 360h26l186 -344l333 344h25l-349 -360l190 -350h-25l-180 334l-323 -334h-26z" />
    <glyph glyph-name="Y" unicode="Y" horiz-adv-x="594" 
d="M277 277l-180 433h23l172 -412l348 412h23l-366 -435l-59 -275h-20z" />
    <glyph glyph-name="Z" unicode="Z" horiz-adv-x="587" 
d="M-36 20l656 670h-509l5 20h534l-5 -20l-656 -670h510l-4 -20h-535z" />
    <glyph glyph-name="bracketleft" unicode="[" horiz-adv-x="216" 
d="M23 -40l166 780h67l-4 -20h-48l-157 -740h48l-4 -20h-68z" />
    <glyph glyph-name="backslash" unicode="\" horiz-adv-x="480" 
d="M130 710l262 -710h-25l-263 710h26z" />
    <glyph glyph-name="bracketright" unicode="]" horiz-adv-x="215" 
d="M-20 -40l4 20h48l157 740h-47l4 20h67l-165 -780h-68z" />
    <glyph glyph-name="asciicircum" unicode="^" horiz-adv-x="505" 
d="M55 303l198 407h18l197 -407h-23l-183 378l-186 -378h-21z" />
    <glyph glyph-name="underscore" unicode="_" horiz-adv-x="513" 
d="M-1 -20l4 20h373l-4 -20h-373z" />
    <glyph glyph-name="grave" unicode="`" horiz-adv-x="194" 
d="M150 730h32l44 -74l-16 -11z" />
    <glyph glyph-name="a" unicode="a" horiz-adv-x="580" 
d="M216 -10q-57 0 -98.5 31.5t-64 82t-22.5 106.5q0 60 24 116.5t65 102t93 72t108 26.5q70 0 113.5 -38.5t62.5 -90.5l26 121h21l-102 -475q-1 -2 -1.5 -5.5t-0.5 -6.5q0 -12 12 -12l-4 -20h-4.5t-4.5 1q-10 3 -14.5 10t-4.5 18q0 3 1 8t4 20.5t10 50.5q-42 -52 -101 -85
t-118 -33zM218 10q32 0 68.5 13t70 35t58 51t33.5 60l40 187q-5 40 -27.5 74t-59 55.5t-83.5 21.5q-52 0 -100 -26.5t-85.5 -69.5t-59.5 -95.5t-22 -105.5t22 -98.5t59.5 -73.5t85.5 -28z" />
    <glyph glyph-name="b" unicode="b" horiz-adv-x="576" 
d="M231 -10q-66 0 -109.5 36t-61.5 82l-23 -108h-20l155 730h20l-70 -332q50 56 106.5 92.5t120.5 36.5q61 0 101 -32t59.5 -81t19.5 -101q0 -63 -25.5 -120.5t-68 -103.5t-95.5 -72.5t-109 -26.5zM233 10q53 0 102.5 25.5t88.5 69t61.5 97t22.5 110.5q0 51 -19 95.5t-56 72
t-91 27.5q-45 0 -85 -20t-75 -52t-68 -69l-46 -225q7 -40 30.5 -69.5t58.5 -45.5t76 -16z" />
    <glyph glyph-name="c" unicode="c" horiz-adv-x="514" 
d="M219 -10q-56 0 -98.5 29.5t-66 79.5t-23.5 111q0 65 25 122t67.5 101t96.5 69t112 25q62 0 105 -30.5t56 -85.5l-22 -7q-13 48 -49.5 75.5t-86.5 27.5q-54 0 -105 -23.5t-91 -64t-64 -93.5t-24 -112q0 -56 21.5 -102.5t59.5 -74t88 -27.5q39 0 79 15.5t72.5 40.5t45.5 53
l19 -6q-18 -35 -53 -63t-78 -44t-86 -16z" />
    <glyph glyph-name="d" unicode="d" horiz-adv-x="579" 
d="M218 -10q-59 0 -101 31.5t-64 82t-22 107.5q0 60 24 116t65 101.5t93.5 72t109.5 26.5q68 0 111.5 -38.5t62.5 -90.5l70 332h21l-147 -687q-1 -3 -1 -5.5v-4.5q0 -13 12 -13l-4 -20q-4 0 -7 0.5t-5 1.5q-8 3 -12 10.5t-4 17.5q0 2 0.5 6.5t4 20.5t10.5 51
q-42 -52 -101.5 -85t-115.5 -33zM222 10q29 0 64 12.5t69 35t59 51t34 60.5l40 187q-5 42 -30.5 76t-62 54.5t-76.5 20.5q-55 0 -103.5 -26t-85.5 -69t-58 -95t-21 -104q0 -54 21.5 -100.5t60 -74.5t89.5 -28z" />
    <glyph glyph-name="e" unicode="e" horiz-adv-x="527" 
d="M230 -10q-59 0 -102.5 30t-67.5 80t-26 110q-2 59 18 115.5t58 102t90.5 72.5t114.5 27q45 0 82.5 -15.5t60.5 -47t24 -79.5q3 -79 -61 -108t-196 -29q-41 0 -84.5 1.5t-97.5 5.5l8 19q56 -3 97.5 -4.5t79.5 -1.5q89 0 140.5 12.5t73 38t19.5 64.5q-1 45 -24 72t-57 39.5
t-69 12.5q-55 0 -102.5 -26t-82.5 -68t-53.5 -92.5t-17.5 -99.5q2 -60 23.5 -108t61.5 -75.5t97 -27.5q68 0 116.5 32t76.5 86l21 -6q-21 -40 -52.5 -69.5t-73.5 -46t-95 -16.5z" />
    <glyph glyph-name="f" unicode="f" horiz-adv-x="292" 
d="M139 499h-71l4 20h72l4 21q13 63 38 108t59.5 68.5t75.5 23.5q27 0 50 -9.5t33 -24.5l-18 -12q-9 12 -27.5 19.5t-40.5 7.5q-54 0 -93.5 -46.5t-56.5 -134.5l-4 -21h146l-4 -20h-147l-151 -712h-20z" />
    <glyph glyph-name="g" unicode="g" horiz-adv-x="576" 
d="M166 -223q-82 0 -127 34.5t-61 89.5l20 6q20 -58 62 -84t110 -26q54 0 103 20.5t84.5 61t48.5 99.5l28 130q-42 -52 -102 -85t-116 -33q-58 0 -100 31.5t-64 82t-22 107.5q0 58 23.5 114t64.5 101.5t93.5 73t110.5 27.5q67 0 108 -38t66 -91l26 121h19l-115 -541
q-14 -68 -54.5 -113t-95 -66.5t-110.5 -21.5zM221 10q35 0 71 14t68.5 37.5t55.5 51.5t31 56l40 187q-6 44 -30.5 78t-60.5 53.5t-78 19.5q-57 0 -106 -27t-85 -71t-56.5 -95.5t-20.5 -100.5q0 -54 21 -100.5t59.5 -74.5t90.5 -28z" />
    <glyph glyph-name="h" unicode="h" horiz-adv-x="540" 
d="M172 730h20l-73 -345q44 65 108.5 103.5t128.5 38.5q39 0 65 -15.5t39.5 -46.5t13.5 -77q0 -21 -3 -46t-9 -53l-61 -289h-20l61 289q5 27 8.5 51t3.5 44q0 61 -26 92t-76 31q-46 0 -93.5 -23.5t-87.5 -64t-64 -91.5l-70 -328h-20z" />
    <glyph glyph-name="i" unicode="i" horiz-adv-x="182" 
d="M127 519h20l-110 -519h-20zM172 730h20l-16 -77h-20z" />
    <glyph glyph-name="j" unicode="j" horiz-adv-x="190" 
d="M-118 -170q-28 0 -51 7.5t-37 26.5l18 12q14 -16 34 -21t39 -5q26 0 54 15t49.5 41t28.5 58l118 555h20l-118 -555q-8 -39 -34 -69t-58.5 -47.5t-62.5 -17.5zM180 730h20l-16 -77h-20z" />
    <glyph glyph-name="k" unicode="k" horiz-adv-x="521" 
d="M257 255q113 22 172.5 65.5t59.5 102.5q0 42 -28.5 65.5t-78.5 23.5q-46 0 -94 -24.5t-99 -75.5t-108 -131l18 44q45 69 92.5 114.5t96.5 68.5t97 23q59 0 92.5 -27.5t33.5 -77.5q0 -66 -61 -115.5t-165 -68.5l120 -242h-24zM172 730h20l-155 -730h-20z" />
    <glyph glyph-name="l" unicode="l" horiz-adv-x="224" 
d="M96 -5q-28 0 -44 16.5t-16 44.5q0 5 0.5 10t1.5 11l139 653h20l-139 -653q-1 -4 -1.5 -8t-0.5 -8q0 -47 52 -47q11 0 26 2.5t28 6.5l3 -16q-13 -4 -34 -8t-35 -4z" />
    <glyph glyph-name="m" unicode="m" horiz-adv-x="866" 
d="M127 519h20l-28 -134q47 68 105 105t116 37q41 0 68.5 -18.5t40.5 -53.5t8 -85q25 51 63 86t82 53t86 18q38 0 63 -14.5t37.5 -43.5t12.5 -73q0 -22 -3 -49t-10 -58l-61 -289h-20l61 289q12 59 12 101q0 59 -24 88t-74 29q-45 0 -89 -22.5t-80.5 -63t-61.5 -94.5
l-69 -327h-20l61 289q7 31 10 57t3 47q0 58 -23.5 86t-73.5 28q-69 0 -131.5 -49.5t-100.5 -129.5l-70 -328h-20z" />
    <glyph glyph-name="n" unicode="n" horiz-adv-x="540" 
d="M127 519h20l-28 -134q29 42 70 74t87 50t90 18q37 0 61.5 -13.5t36.5 -41.5t12 -71q0 -24 -3.5 -52t-10.5 -60l-61 -289h-20l61 289q7 32 10 58.5t3 48.5q0 57 -23 84t-70 27t-96.5 -23.5t-91.5 -64t-67 -91.5l-70 -328h-20z" />
    <glyph glyph-name="o" unicode="o" horiz-adv-x="561" 
d="M219 -10q-63 0 -105 29t-63 78t-21 108q0 68 24.5 126.5t66.5 102.5t95 68.5t109 24.5q63 0 104.5 -29.5t62.5 -78.5t21 -109q0 -67 -24 -125t-65.5 -102t-94.5 -68.5t-110 -24.5zM222 10q52 0 100.5 22.5t87 63t61 94.5t22.5 116q0 55 -19 100.5t-57 73t-96 27.5
q-52 0 -100.5 -23t-87 -64t-61 -95t-22.5 -117q0 -55 19 -100t57.5 -71.5t95.5 -26.5z" />
    <glyph glyph-name="p" unicode="p" horiz-adv-x="577" 
d="M128 519h19l-23 -110q42 52 102 85t116 33q59 0 100.5 -31.5t63.5 -82t22 -107.5q0 -59 -23 -115.5t-63 -101.5t-93 -72t-113 -27q-65 0 -109 38.5t-64 90.5l-71 -332h-20zM240 10q55 0 103.5 26t85.5 69t58 95t21 104q0 54 -21 100.5t-59.5 74.5t-90.5 28
q-28 0 -63.5 -13t-69.5 -35.5t-59 -51t-34 -59.5l-40 -187q9 -42 32.5 -76t58.5 -54.5t78 -20.5z" />
    <glyph glyph-name="q" unicode="q" horiz-adv-x="576" 
d="M436 119q-55 -63 -112.5 -96t-115.5 -33t-98 30.5t-60.5 79.5t-20.5 105q0 62 25.5 120t69 103.5t97 72t110.5 26.5q58 0 103 -34t64 -84l23 110h20l-155 -732h-20zM212 10q47 0 90 21.5t79.5 55.5t63.5 74l45 204q-4 36 -25 68.5t-56.5 53t-81.5 20.5q-55 0 -105 -26
t-89 -69t-61.5 -96.5t-22.5 -107.5q0 -53 19.5 -98.5t56 -72.5t87.5 -27z" />
    <glyph glyph-name="r" unicode="r" horiz-adv-x="317" 
d="M127 519h20l-28 -134q41 61 94 94.5t107 38.5q5 1 10 1h9l-4 -20q-70 -3 -131 -48.5t-97 -122.5l-70 -328h-20z" />
    <glyph glyph-name="s" unicode="s" horiz-adv-x="450" 
d="M159 -10q-56 0 -99.5 20.5t-71.5 63.5l17 13q30 -39 68 -58t90 -19q55 0 98.5 18t69 50.5t25.5 76.5t-39 64t-109 38q-43 11 -73.5 22t-46.5 28.5t-16 48.5q0 58 29 96t77 56.5t103 18.5q60 0 97.5 -21.5t47.5 -53.5l-19 -8q-11 31 -49 47t-85 16q-41 0 -83 -15
t-69.5 -46.5t-27.5 -83.5q0 -38 30.5 -53.5t89.5 -31.5q50 -13 86.5 -26t57 -33.5t20.5 -55.5q0 -56 -28.5 -94.5t-77.5 -58t-112 -19.5z" />
    <glyph glyph-name="t" unicode="t" horiz-adv-x="281" 
d="M48 58q0 4 0.5 8.5t1.5 8.5l90 424h-71l4 20h72l38 181h20l-38 -181h118l-4 -20h-119l-80 -373q-6 -28 -8.5 -40.5t-2.5 -19.5q0 -25 16.5 -38t38.5 -13t40.5 6t31 12t13.5 7l7 -16l-13.5 -7.5t-35.5 -14.5t-48 -7q-31 0 -51 17.5t-20 45.5z" />
    <glyph glyph-name="u" unicode="u" horiz-adv-x="551" 
d="M167 -10q-120 0 -120 139q0 22 3 46.5t9 52.5l62 291h20l-62 -291q-12 -55 -12 -97q0 -121 105 -121q48 0 96 23t89.5 63.5t66.5 92.5l70 330h20l-96 -452q-2 -11 -4.5 -21t-2.5 -12q0 -14 13 -14l-5 -20q-4 0 -7 0.5t-5 1.5q-7 3 -11 10t-4 17q0 2 1 7.5t5 26.5t14 69
q-46 -65 -112 -103.5t-133 -38.5z" />
    <glyph glyph-name="v" unicode="v" horiz-adv-x="451" 
d="M64 519h21l78 -491q50 56 91 118.5t74.5 127t59 127.5t43.5 118h20q-40 -130 -108.5 -263t-177.5 -256h-18z" />
    <glyph glyph-name="w" unicode="w" horiz-adv-x="723" 
d="M61 519h21l88 -491q58 62 105 134t84 144l-38 213h21l32 -182q23 48 41.5 94t32.5 88h20q-17 -53 -39 -107.5t-49 -108.5l50 -275q41 44 77 93.5t66 101t55.5 102.5t45 100.5t34.5 93.5h20q-42 -130 -112.5 -263t-183.5 -256h-18l-49 273q-37 -70 -85 -139t-108 -134h-18
z" />
    <glyph glyph-name="x" unicode="x" horiz-adv-x="456" 
d="M206 258l-142 261h26l127 -234l5 -12l8 8l229 238h26l-253 -261l141 -258h-26l-126 232l-5 12l-10 -10l-224 -234h-26z" />
    <glyph glyph-name="y" unicode="y" horiz-adv-x="446" 
d="M-37 -207q41 8 66.5 24t48 44.5t52.5 75.5l41 63l-119 519h22l112 -494l58 92q47 75 79.5 130.5t55 100t38 85.5t28.5 86h21q-13 -48 -28.5 -90t-38 -87t-56.5 -102.5t-84 -136.5l-82 -129q-36 -56 -62 -92.5t-48.5 -58t-46.5 -32t-55 -15.5z" />
    <glyph glyph-name="z" unicode="z" horiz-adv-x="457" 
d="M-32 20l477 479h-370l4 20h395l-4 -20l-476 -479h371l-5 -20h-396z" />
    <glyph glyph-name="braceleft" unicode="{" horiz-adv-x="217" 
d="M204 720l-65 -304q-1 -5 -7.5 -23.5t-24.5 -32.5q6 -7 8 -16t2 -18q0 -7 -1 -13.5t-1 -8.5l-67 -315h53l-5 -20h-50q-6 0 -11 4.5t-5 14.5v5t1 6l65 305q1 4 1.5 8.5t0.5 8.5q0 11 -4.5 20t-16.5 10l4 20q14 0 21.5 9.5t11.5 20.5t5 15l63 294q4 20 14 25t14 5h50l-4 -20
h-52z" />
    <glyph glyph-name="bar" unicode="|" horiz-adv-x="254" 
d="M122 -130v905h20v-905h-20z" />
    <glyph glyph-name="braceright" unicode="}" horiz-adv-x="218" 
d="M140 720l4 20h50q3 0 10 -3.5t7 -17.5q0 -6 -1 -9l-63 -294q-1 -2 -1.5 -7t-0.5 -10q0 -10 4 -19t17 -9l-4 -20q-17 -2 -26.5 -17t-12.5 -30l-64 -305q-4 -16 -12.5 -23t-16.5 -7h-50l4 20h52l67 315q1 5 8 24t24 32q-6 8 -8 17t-2 17t0.5 14t1.5 8l65 304h-52z" />
    <glyph glyph-name="asciitilde" unicode="~" horiz-adv-x="442" 
d="M56 251q0 2 4.5 14t15 28t26.5 27.5t38 11.5q27 0 51 -15t48 -30.5t50 -15.5q24 0 39.5 12.5t23 26t7.5 15.5l20 -1l-4.5 -11t-15 -25.5t-27.5 -25.5t-43 -11q-31 0 -57 15.5t-48.5 30.5t-43.5 15q-20 0 -34.5 -15t-22 -30t-7.5 -16h-20z" />
    <glyph glyph-name="uni00A0" unicode="&#xa0;" horiz-adv-x="255" 
 />
    <glyph glyph-name="exclamdown" unicode="&#xa1;" horiz-adv-x="224" 
d="M168 517l-110 -517h-20l110 517h20zM210 717l-17 -84h-25l22 84h20z" />
    <glyph glyph-name="cent" unicode="&#xa2;" horiz-adv-x="522" 
d="M175 -120l24 111q-53 5 -91 37t-57.5 80.5t-19.5 101.5q0 57 22.5 112t62 100t90 73.5t107.5 31.5l25 118h19l-25 -118q74 -2 110.5 -34t49.5 -82l-21 -7q-16 52 -53.5 76.5t-89.5 26.5l-106 -497q31 0 70.5 13.5t74.5 38t50 57.5l19 -6q-21 -40 -59 -67.5t-80.5 -41.5
t-78.5 -14l-24 -110h-19zM51 212q0 -51 18.5 -95t53 -72.5t80.5 -33.5l105 496q-55 -3 -102 -31t-82 -71.5t-54 -94t-19 -98.5z" />
    <glyph glyph-name="sterling" unicode="&#xa3;" horiz-adv-x="446" 
d="M64 366h292l-5 -20h-291zM-4 10q63 57 100 95.5t55 66.5t23.5 53.5t5.5 57.5q0 47 -12.5 86t-25.5 75.5t-13 75.5t16.5 74t44.5 62.5t62.5 43t70.5 15.5q47 0 82.5 -28.5t49.5 -76.5l-19 -12q-13 45 -45 71t-74 26q-41 0 -79 -23.5t-62.5 -62t-24.5 -84.5q0 -38 12.5 -75
t25 -76.5t12.5 -87.5q0 -31 -5.5 -58t-22 -56.5t-49.5 -66t-88 -87.5q16 3 34 5t35 2q29 0 50.5 -5t41.5 -10t44 -5q20 0 43.5 5t54.5 16l2 -19q-28 -11 -54 -16.5t-51 -5.5q-28 0 -49.5 5t-42.5 10t-50 5q-20 0 -45.5 -3.5t-46.5 -8.5z" />
    <glyph glyph-name="currency" unicode="&#xa4;" horiz-adv-x="551" 
d="M160 467q23 23 54 35.5t65 12.5q36 0 67.5 -13.5t54.5 -36.5l70 69l15 -14l-71 -70q19 -24 30 -53.5t11 -61.5t-11.5 -62t-31.5 -54l73 -71l-15 -14l-72 71q-24 -22 -54.5 -35t-65.5 -13q-34 0 -64 12t-53 33l-69 -68l-15 14l70 69q-44 50 -44 118q0 33 11.5 63t30.5 54
l-68 68l15 14zM125 334q0 -44 21 -80t56 -57.5t77 -21.5q43 0 78 22t56.5 59t21.5 80q0 45 -21.5 81t-56.5 57.5t-78 21.5q-41 0 -76.5 -21.5t-56.5 -58.5t-21 -82z" />
    <glyph glyph-name="yen" unicode="&#xa5;" horiz-adv-x="627" 
d="M368 341h88l-4 -20h-101l-39 -46l-5 -24h130l-4 -20h-130l-50 -231h-20l50 231h-130l4 20h130l5 26l-18 44h-102l5 20h89l-154 369h23l172 -412l348 412h23z" />
    <glyph glyph-name="brokenbar" unicode="&#xa6;" horiz-adv-x="248" 
d="M139 285v-415h-20v415h20zM139 775v-415h-20v415h20z" />
    <glyph glyph-name="section" unicode="&#xa7;" horiz-adv-x="468" 
d="M346 181q33 -22 33 -75q0 -47 -20.5 -83.5t-53.5 -61t-71 -37t-72 -12.5q-40 0 -70 11t-51.5 30t-38.5 41l18 13q30 -37 65 -56t82 -19q31 0 64.5 11.5t62 33t46 52.5t17.5 70q0 38 -19.5 57t-49 26t-61.5 8q-61 2 -105 30.5t-44 91.5q0 24 8 47.5t20.5 43t26.5 32.5
q-16 12 -25.5 37t-9.5 53q0 46 20.5 81t53 59.5t69.5 37t70 12.5q32 0 55 -5t39.5 -14.5t28 -23.5t19.5 -32l-20 -8q-7 26 -27.5 39.5t-47 18.5t-51.5 5q-31 0 -64 -11.5t-61 -33t-45.5 -52.5t-17.5 -70q0 -55 37 -78.5t96 -23.5q40 0 74.5 -12t56.5 -38t22 -69
q0 -24 -8 -47.5t-21 -44t-30 -34.5zM98 312q0 -38 17 -58.5t44 -30t58.5 -13.5t61 -7.5t49.5 -12.5q24 18 40.5 49.5t16.5 63.5q0 39 -21 61.5t-52.5 32t-63.5 9.5q-28 0 -53 4.5t-45 14.5q-21 -17 -36.5 -47.5t-15.5 -65.5z" />
    <glyph glyph-name="dieresis" unicode="&#xa8;" horiz-adv-x="231" 
d="M134 653l16 77h20l-16 -77h-20zM245 653l16 77h20l-16 -77h-20z" />
    <glyph glyph-name="copyright" unicode="&#xa9;" horiz-adv-x="836" 
d="M429 -7q-78 0 -143.5 27t-114.5 76t-76 115t-27 144q0 77 27 143t76 114.5t114.5 75.5t143.5 27t143.5 -27t114.5 -75.5t76 -114.5t27 -143q0 -78 -27 -144t-76 -115t-114.5 -76t-143.5 -27zM430 13q72 0 133.5 24.5t107.5 69.5t72 107.5t26 137.5q0 74 -25.5 137
t-71 109t-107.5 71.5t-135 25.5t-135.5 -25.5t-108.5 -71.5t-71.5 -108t-25.5 -136q0 -73 25.5 -135t71.5 -108.5t108 -72t136 -25.5zM436 127q-38 0 -76.5 15t-71 44.5t-52 72t-19.5 96.5q0 40 12.5 80.5t38 74.5t65.5 55t95 21q56 0 103.5 -24.5t66.5 -74.5l-19 -7
q-15 37 -42.5 55t-57 24.5t-51.5 6.5q-49 0 -85.5 -19t-59.5 -50t-34.5 -68.5t-11.5 -73.5q0 -50 18 -88.5t47.5 -65t63.5 -40.5t66 -14q29 0 61 11t58 31.5t38 48.5l19 -5q-5 -17 -28 -42.5t-60 -44.5t-84 -19z" />
    <glyph glyph-name="ordfeminine" unicode="&#xaa;" horiz-adv-x="404" 
d="M172 351q-43 0 -68 25t-25 64q0 37 22 63.5t60 41.5t84 15q29 0 59 -5.5t54 -16.5l8 35q2 8 3 16t1 15q0 42 -22 63.5t-69 21.5q-25 0 -58 -12t-65 -33l-8 19q76 46 134 46q52 0 80 -25.5t28 -72.5q0 -9 -1 -19.5t-3 -21.5l-43 -177q-1 -3 -1 -4.5v-3.5q0 -10 13 -10
l-4 -18q-16 0 -23.5 5.5t-7.5 18.5v4.5t1 5.5q2 8 3 12.5t2 8.5q-26 -28 -67 -44.5t-87 -16.5zM179 370q33 0 67.5 13t60.5 33.5t31 42.5l15 59q-25 11 -53 17t-56 6q-61 0 -103 -27.5t-42 -71.5q0 -34 19.5 -53t60.5 -19z" />
    <glyph glyph-name="guillemotleft" unicode="&#xab;" horiz-adv-x="497" 
d="M36 268l261 169l-5 -22l-239 -156l173 -157l-5 -22l-189 170zM198 268l262 169l-5 -22l-240 -156l173 -157l-4 -22l-189 170z" />
    <glyph glyph-name="logicalnot" unicode="&#xac;" horiz-adv-x="540" 
d="M478 338l-42 -198h-20l38 178h-364l4 20h384z" />
    <glyph glyph-name="uni00AD" unicode="&#xad;" horiz-adv-x="519" 
d="M59 261l4 20h384l-4 -20h-384z" />
    <glyph glyph-name="registered" unicode="&#xae;" horiz-adv-x="836" 
d="M429 -7q-78 0 -143.5 27t-114.5 76t-76 115t-27 144q0 77 27 143t76 114.5t114.5 75.5t143.5 27t143.5 -27t114.5 -75.5t76 -114.5t27 -143q0 -78 -27 -144t-76 -115t-114.5 -76t-143.5 -27zM429 13q96 0 173 42.5t122 119.5t45 180q0 73 -25.5 135t-71 108t-107.5 71.5
t-136 25.5q-73 0 -135 -25.5t-108 -71.5t-71.5 -108t-25.5 -135t25.5 -135.5t71 -109t108 -72t135.5 -25.5zM284 583h188q38 0 67.5 -20.5t46 -52.5t16.5 -67q0 -36 -15 -67t-41.5 -50.5t-61.5 -22.5l117 -182h-24l-116 182h-156v-182h-21v462zM477 323q52 0 78.5 36
t26.5 84q0 49 -30.5 84t-79.5 35h-167v-239h172z" />
    <glyph glyph-name="macron" unicode="&#xaf;" horiz-adv-x="366" 
d="M141 686l4 20h266l-4 -20h-266z" />
    <glyph glyph-name="degree" unicode="&#xb0;" horiz-adv-x="245" 
d="M180 586q-23 0 -38 15.5t-15 38.5q0 21 11.5 40t30.5 31.5t41 12.5q23 0 38 -16.5t15 -40.5q0 -21 -12 -39.5t-31 -30t-40 -11.5zM185 606q19 0 38.5 17t19.5 41q0 20 -10.5 28.5t-27.5 8.5q-22 0 -38.5 -16t-16.5 -39q0 -16 9 -28t26 -12z" />
    <glyph glyph-name="plusminus" unicode="&#xb1;" horiz-adv-x="483" 
d="M77 85v20h300v-20h-300zM377 365v-20h-140v-150h-20v150h-140v20h140v150h20v-150h140z" />
    <glyph glyph-name="uni00B2" unicode="&#xb2;" horiz-adv-x="354" 
d="M67 423q11 50 32 83t52 54.5t70 35.5q26 9 53.5 18t51.5 22t39 33t15 50q0 29 -20.5 51t-67.5 22q-34 0 -61.5 -11t-47 -26t-30.5 -26l-13 15q2 3 21 19.5t53 32t80 15.5q56 0 80.5 -26.5t24.5 -62.5t-16.5 -59.5t-42.5 -38.5t-54.5 -24t-52.5 -17q-53 -18 -81.5 -43.5
t-40 -51.5t-15.5 -46h246l-4 -19h-271z" />
    <glyph glyph-name="uni00B3" unicode="&#xb3;" horiz-adv-x="363" 
d="M205 418q-59 0 -90 27t-31 69l17 7q0 -40 28.5 -62t79.5 -22q38 0 69.5 13t51 34.5t19.5 49.5q0 35 -33 55t-91 20h-21l4 18h21q70 0 108.5 23.5t38.5 66.5q0 34 -27.5 55t-71.5 21q-40 0 -74 -17t-51 -43l-12 12q14 20 36 35t49 23t56 8q53 0 84.5 -26t31.5 -65
q0 -38 -26 -64.5t-79 -37.5q36 -7 56.5 -29.5t20.5 -52.5q0 -34 -23 -60.5t-60.5 -42t-80.5 -15.5z" />
    <glyph glyph-name="acute" unicode="&#xb4;" horiz-adv-x="194" 
d="M143 645l-13 12l76 73h33z" />
    <glyph glyph-name="uni00B5" unicode="&#xb5;" horiz-adv-x="580" 
d="M136 519h21l-62 -291q-6 -28 -9 -52.5t-3 -44.5q0 -121 104 -121q48 0 96 23t89.5 63.5t66.5 92.5l70 330h21l-102 -479q-1 -1 -1 -3v-4q0 -13 12 -13l-5 -20q-14 0 -20.5 8.5t-6.5 21.5v5t1 5l10 46l10 46q-31 -43 -71.5 -75t-85 -49.5t-88.5 -17.5q-52 0 -81 26t-36 78
l-65 -306h-20z" />
    <glyph glyph-name="paragraph" unicode="&#xb6;" horiz-adv-x="541" 
d="M64 433q0 83 40 145t112.5 97t170.5 35h192l-5 -20h-66l-164 -770h-20l70 328h-86l-70 -328h-20l70 328q-107 2 -165.5 51t-58.5 134zM84 438q0 -58 28 -94.5t75.5 -54.5t104.5 -21l90 422q-95 0 -161.5 -31.5t-101.5 -88.5t-35 -132zM488 690h-86l-90 -422h86z" />
    <glyph glyph-name="periodcentered" unicode="&#xb7;" horiz-adv-x="155" 
d="M56 250l18 83h19l-17 -83h-20z" />
    <glyph glyph-name="cedilla" unicode="&#xb8;" horiz-adv-x="283" 
d="M56 -164q-22 0 -46.5 6t-44.5 19l11 15q20 -10 37.5 -16t43.5 -6q39 0 62 21t23 49q0 23 -13.5 41t-38.5 35l20 9q23 -18 36.5 -37t13.5 -45q0 -31 -14 -51.5t-37.5 -30t-52.5 -9.5z" />
    <glyph glyph-name="uni00B9" unicode="&#xb9;" horiz-adv-x="240" 
d="M250 441l-4 -19h-172l4 19h79l73 344q-8 -8 -26.5 -19.5t-39 -19.5t-36.5 -8l4 19q15 0 32.5 8t33.5 18t26 18.5t11 9.5h20l-79 -370h74z" />
    <glyph glyph-name="ordmasculine" unicode="&#xba;" horiz-adv-x="431" 
d="M223 351q-40 0 -70 20t-46 53.5t-16 72.5q0 42 17.5 80t47 67.5t66.5 47t77 17.5q41 0 71 -20t47 -53t17 -74t-17.5 -79t-47.5 -67.5t-67.5 -47t-78.5 -17.5zM227 370q46 0 88.5 26.5t69.5 69.5t27 93q0 55 -32.5 92.5t-84.5 37.5q-45 0 -87 -26t-69 -69.5t-27 -94.5
q0 -54 32 -91.5t83 -37.5z" />
    <glyph glyph-name="guillemotright" unicode="&#xbb;" horiz-adv-x="497" 
d="M443 250l-261 -170l4 22l240 157l-173 156l4 22l190 -169zM281 250l-262 -170l5 22l240 157l-174 156l5 22l189 -169z" />
    <glyph glyph-name="onequarter" unicode="&#xbc;" horiz-adv-x="712" 
d="M233 361l-4 -19h-172l4 19h79l73 344q-8 -8 -26.5 -19.5t-39 -19.5t-36.5 -8l4 19q15 0 32.5 8t33.5 18t26 18.5t11 9.5h20l-79 -370h74zM-35 11l318 328l361 372l13 -12l-363 -374l-316 -326zM544 0l23 110h-221l4 17l281 256h14l-54 -254h52l-4 -19h-52l-24 -110h-19z
M377 129h194l47 219z" />
    <glyph glyph-name="onehalf" unicode="&#xbd;" horiz-adv-x="714" 
d="M337 0q11 50 32 83t52 54.5t70 35.5q26 9 53.5 18t51.5 22t39 33t15 50q0 29 -20.5 51t-67.5 22q-34 0 -61.5 -11t-47 -26t-30.5 -26l-13 15q2 3 21 19.5t53 32t80 15.5q56 0 80.5 -26.5t24.5 -62.5t-16.5 -59.5t-42.5 -38.5t-54.5 -24t-52.5 -17q-53 -18 -81.5 -43.5
t-40 -51.5t-15.5 -46h246l-4 -19h-271zM233 361l-4 -19h-172l4 19h79l73 344q-8 -8 -26.5 -19.5t-39 -19.5t-36.5 -8l4 19q15 0 32.5 8t33.5 18t26 18.5t11 9.5h20l-79 -370h74zM-35 11l318 328l361 372l13 -12l-363 -374l-316 -326z" />
    <glyph glyph-name="threequarters" unicode="&#xbe;" horiz-adv-x="835" 
d="M188 338q-25 0 -53.5 10t-48 31t-19.5 55l17 7q0 -34 28.5 -59t79.5 -25q38 0 69.5 13t51 35t19.5 49q0 35 -33.5 55t-90.5 20h-21l4 18h21q70 0 108.5 23.5t38.5 66.5q0 34 -27.5 55t-71.5 21q-40 0 -74 -17t-51 -43l-12 12q14 20 36 35t49 23t56 8q53 0 84.5 -26
t31.5 -65q0 -38 -26 -64.5t-79 -37.5q36 -7 56.5 -29.5t20.5 -52.5q0 -34 -23 -60.5t-60.5 -42t-80.5 -15.5zM88 11l318 328l361 372l13 -12l-363 -374l-316 -326zM667 0l23 110h-221l4 17l281 256h14l-54 -254h52l-4 -19h-52l-24 -110h-19zM500 129h194l47 219z" />
    <glyph glyph-name="questiondown" unicode="&#xbf;" horiz-adv-x="445" 
d="M284 327q-13 -64 -31.5 -100t-41 -55t-48.5 -32q-30 -15 -61.5 -28.5t-58.5 -34t-43.5 -54.5t-16.5 -89q0 -65 38 -96t89 -31q38 0 76.5 14.5t72 40.5t57.5 62l16 -8q-26 -41 -64 -70t-79.5 -44t-81.5 -15q-39 0 -72 17t-52.5 49.5t-19.5 80.5q0 58 17.5 94t46.5 59
t63 39t68 33q23 12 42.5 28t35.5 48.5t28 91.5h20zM322 506l-18 -84h-20l18 84h20z" />
    <glyph glyph-name="Agrave" unicode="&#xc0;" horiz-adv-x="647" 
d="M406 710h18l142 -710h-22l-51 254h-351l-159 -254h-22zM489 274l-80 407l-255 -407h335zM353 921h32l44 -74l-16 -11z" />
    <glyph glyph-name="Aacute" unicode="&#xc1;" horiz-adv-x="647" 
d="M406 710h18l142 -710h-22l-51 254h-351l-159 -254h-22zM489 274l-80 407l-255 -407h335zM437 836l-13 12l76 73h33z" />
    <glyph glyph-name="Acircumflex" unicode="&#xc2;" horiz-adv-x="647" 
d="M406 710h18l142 -710h-22l-51 254h-351l-159 -254h-22zM489 274l-80 407l-255 -407h335zM344 818l104 74h16l73 -74l-18 -12l-68 63l-94 -63z" />
    <glyph glyph-name="Atilde" unicode="&#xc3;" horiz-adv-x="647" 
d="M406 710h18l142 -710h-22l-51 254h-351l-159 -254h-22zM489 274l-80 407l-255 -407h335zM501 854q-28 0 -45.5 9.5t-31.5 19t-34 9.5t-33 -10.5t-19 -22.5t-7 -15h-19q0 2 4.5 12.5t14 23t25.5 22t40 9.5q18 0 31 -5.5t24.5 -13.5t24.5 -13.5t31 -5.5q26 0 40 11t20 23
t6 14h19q-1 -3 -5.5 -14t-15 -23t-27.5 -21t-43 -9z" />
    <glyph glyph-name="Adieresis" unicode="&#xc4;" horiz-adv-x="647" 
d="M406 710h18l142 -710h-22l-51 254h-351l-159 -254h-22zM489 274l-80 407l-255 -407h335zM378 844l16 77h20l-16 -77h-20zM489 844l16 77h20l-16 -77h-20z" />
    <glyph glyph-name="Aring" unicode="&#xc5;" horiz-adv-x="647" 
d="M406 710h18l142 -710h-22l-51 254h-351l-159 -254h-22zM489 274l-80 407l-255 -407h335zM392 853q0 28 21 48t47 20q20 0 31.5 -13t11.5 -33q0 -28 -21 -48t-47 -20q-19 0 -31 13.5t-12 32.5zM456 905q-18 0 -33 -13.5t-15 -35.5q0 -14 8.5 -23.5t22.5 -9.5q16 0 32.5 14
t16.5 35q0 15 -9 24t-23 9z" />
    <glyph glyph-name="AE" unicode="&#xc6;" horiz-adv-x="921" 
d="M511 710h440l-5 -20h-414l-67 -317h363l-5 -20h-363l-70 -333h422l-4 -20h-443l54 254h-266l-212 -254h-25zM424 274l85 404l-340 -404h255z" />
    <glyph glyph-name="Ccedilla" unicode="&#xc7;" horiz-adv-x="663" 
d="M307 -6q-61 0 -108.5 25t-80 67t-49.5 94.5t-17 107.5q0 60 19.5 120.5t55 115.5t85 97.5t110.5 67.5t130 25q92 0 145.5 -43.5t69.5 -111.5l-20 -6q-15 52 -44 83t-68 44.5t-84 13.5q-80 0 -149 -36.5t-120.5 -96.5t-80.5 -132.5t-29 -144.5q0 -71 28.5 -133t81.5 -99.5
t128 -37.5q44 0 92 15.5t94.5 48.5t83.5 86l18 -5q-34 -54 -83 -91t-103 -55.5t-105 -18.5zM233 -164q-22 0 -46.5 6t-44.5 19l11 15q20 -10 37.5 -16t43.5 -6q39 0 62 21t23 49q0 23 -13.5 41t-38.5 35l20 9q23 -18 36.5 -37t13.5 -45q0 -31 -14 -51.5t-37.5 -30
t-52.5 -9.5z" />
    <glyph glyph-name="Egrave" unicode="&#xc8;" horiz-adv-x="588" 
d="M184 710h434l-4 -20h-414l-68 -317h363l-4 -20h-363l-71 -333h423l-4 -20h-443zM328 921h32l44 -74l-16 -11z" />
    <glyph glyph-name="Eacute" unicode="&#xc9;" horiz-adv-x="588" 
d="M184 710h434l-4 -20h-414l-68 -317h363l-4 -20h-363l-71 -333h423l-4 -20h-443zM412 836l-13 12l76 73h33z" />
    <glyph glyph-name="Ecircumflex" unicode="&#xca;" horiz-adv-x="588" 
d="M184 710h434l-4 -20h-414l-68 -317h363l-4 -20h-363l-71 -333h423l-4 -20h-443zM319 818l104 74h16l73 -74l-18 -12l-68 63l-94 -63z" />
    <glyph glyph-name="Edieresis" unicode="&#xcb;" horiz-adv-x="588" 
d="M184 710h434l-4 -20h-414l-68 -317h363l-4 -20h-363l-71 -333h423l-4 -20h-443zM353 844l16 77h20l-16 -77h-20zM464 844l16 77h20l-16 -77h-20z" />
    <glyph glyph-name="Igrave" unicode="&#xcc;" horiz-adv-x="214" 
d="M184 709h20l-151 -709h-20zM131 918h32l44 -74l-16 -11z" />
    <glyph glyph-name="Iacute" unicode="&#xcd;" horiz-adv-x="214" 
d="M184 709h20l-151 -709h-20zM215 833l-13 12l76 73h33z" />
    <glyph glyph-name="Icircumflex" unicode="&#xce;" horiz-adv-x="214" 
d="M184 709h20l-151 -709h-20zM122 815l104 74h16l73 -74l-18 -12l-68 63l-94 -63z" />
    <glyph glyph-name="Idieresis" unicode="&#xcf;" horiz-adv-x="214" 
d="M184 709h20l-151 -709h-20zM156 841l16 77h20l-16 -77h-20zM267 841l16 77h20l-16 -77h-20z" />
    <glyph glyph-name="Eth" unicode="&#xd0;" horiz-adv-x="691" 
d="M51 367h269l-4 -20h-269zM191 710h217q87 0 142.5 -36t82.5 -97t27 -137q0 -94 -30 -174.5t-84 -140t-128 -92.5t-161 -33h-217zM261 20q89 0 159 33.5t119 92t75 133t26 156.5q0 75 -26.5 132.5t-79 90t-130.5 32.5h-197l-143 -670h197z" />
    <glyph glyph-name="Ntilde" unicode="&#xd1;" horiz-adv-x="743" 
d="M184 710h15l370 -681l144 680h20l-151 -709h-22l-364 671l-143 -671h-20zM555 851q-28 0 -45.5 9.5t-31.5 19t-34 9.5t-33 -10.5t-19 -22.5t-7 -15h-19q0 2 4.5 12.5t14 23t25.5 22t40 9.5q18 0 31 -5.5t24.5 -13.5t24.5 -13.5t31 -5.5q26 0 40 11t20 23t6 14h19
q-1 -3 -5.5 -14t-15 -23t-27.5 -21t-43 -9z" />
    <glyph glyph-name="Ograve" unicode="&#xd2;" horiz-adv-x="726" 
d="M305 -5q-67 0 -115 24t-78.5 65t-45 92.5t-14.5 107.5q0 69 20 133t56.5 118.5t85.5 94.5t107.5 62.5t121.5 22.5q67 0 115 -24.5t79 -65.5t45.5 -93t14.5 -108q0 -69 -20 -132.5t-56.5 -117.5t-86 -94t-107.5 -62.5t-122 -22.5zM308 15q78 0 145.5 34.5t117.5 92.5
t78 131t28 151q0 71 -24.5 133t-76.5 100t-135 38q-78 0 -145 -34t-117.5 -92.5t-78.5 -132t-28 -151.5q0 -71 24.5 -132.5t76.5 -99.5t135 -38zM398 918h32l44 -74l-16 -11z" />
    <glyph glyph-name="Oacute" unicode="&#xd3;" horiz-adv-x="726" 
d="M305 -5q-67 0 -115 24t-78.5 65t-45 92.5t-14.5 107.5q0 69 20 133t56.5 118.5t85.5 94.5t107.5 62.5t121.5 22.5q67 0 115 -24.5t79 -65.5t45.5 -93t14.5 -108q0 -69 -20 -132.5t-56.5 -117.5t-86 -94t-107.5 -62.5t-122 -22.5zM308 15q78 0 145.5 34.5t117.5 92.5
t78 131t28 151q0 71 -24.5 133t-76.5 100t-135 38q-78 0 -145 -34t-117.5 -92.5t-78.5 -132t-28 -151.5q0 -71 24.5 -132.5t76.5 -99.5t135 -38zM482 833l-13 12l76 73h33z" />
    <glyph glyph-name="Ocircumflex" unicode="&#xd4;" horiz-adv-x="726" 
d="M305 -5q-67 0 -115 24t-78.5 65t-45 92.5t-14.5 107.5q0 69 20 133t56.5 118.5t85.5 94.5t107.5 62.5t121.5 22.5q67 0 115 -24.5t79 -65.5t45.5 -93t14.5 -108q0 -69 -20 -132.5t-56.5 -117.5t-86 -94t-107.5 -62.5t-122 -22.5zM308 15q78 0 145.5 34.5t117.5 92.5
t78 131t28 151q0 71 -24.5 133t-76.5 100t-135 38q-78 0 -145 -34t-117.5 -92.5t-78.5 -132t-28 -151.5q0 -71 24.5 -132.5t76.5 -99.5t135 -38zM389 815l104 74h16l73 -74l-18 -12l-68 63l-94 -63z" />
    <glyph glyph-name="Otilde" unicode="&#xd5;" horiz-adv-x="726" 
d="M305 -5q-67 0 -115 24t-78.5 65t-45 92.5t-14.5 107.5q0 69 20 133t56.5 118.5t85.5 94.5t107.5 62.5t121.5 22.5q67 0 115 -24.5t79 -65.5t45.5 -93t14.5 -108q0 -69 -20 -132.5t-56.5 -117.5t-86 -94t-107.5 -62.5t-122 -22.5zM308 15q78 0 145.5 34.5t117.5 92.5
t78 131t28 151q0 71 -24.5 133t-76.5 100t-135 38q-78 0 -145 -34t-117.5 -92.5t-78.5 -132t-28 -151.5q0 -71 24.5 -132.5t76.5 -99.5t135 -38zM546 851q-28 0 -45.5 9.5t-31.5 19t-34 9.5t-33 -10.5t-19 -22.5t-7 -15h-19q0 2 4.5 12.5t14 23t25.5 22t40 9.5q18 0 31 -5.5
t24.5 -13.5t24.5 -13.5t31 -5.5q26 0 40 11t20 23t6 14h19q-1 -3 -5.5 -14t-15 -23t-27.5 -21t-43 -9z" />
    <glyph glyph-name="Odieresis" unicode="&#xd6;" horiz-adv-x="726" 
d="M305 -5q-67 0 -115 24t-78.5 65t-45 92.5t-14.5 107.5q0 69 20 133t56.5 118.5t85.5 94.5t107.5 62.5t121.5 22.5q67 0 115 -24.5t79 -65.5t45.5 -93t14.5 -108q0 -69 -20 -132.5t-56.5 -117.5t-86 -94t-107.5 -62.5t-122 -22.5zM308 15q78 0 145.5 34.5t117.5 92.5
t78 131t28 151q0 71 -24.5 133t-76.5 100t-135 38q-78 0 -145 -34t-117.5 -92.5t-78.5 -132t-28 -151.5q0 -71 24.5 -132.5t76.5 -99.5t135 -38zM423 841l16 77h20l-16 -77h-20zM534 841l16 77h20l-16 -77h-20z" />
    <glyph glyph-name="multiply" unicode="&#xd7;" horiz-adv-x="460" 
d="M372 135l-15 -14l-135 135l-135 -135l-14 15l134 134l-135 136l15 14l135 -135l136 136l14 -15l-136 -136z" />
    <glyph glyph-name="Oslash" unicode="&#xd8;" horiz-adv-x="726" 
d="M305 -5q-67 0 -115 24t-78.5 65t-45 92.5t-14.5 107.5q0 69 20 133t56.5 118.5t85.5 94.5t107.5 62.5t121.5 22.5q67 0 115 -24.5t79 -65.5t45.5 -93t14.5 -108q0 -69 -20 -132.5t-56.5 -117.5t-86 -94t-107.5 -62.5t-122 -22.5zM308 15q78 0 145.5 34.5t117.5 92.5
t78 131t28 151q0 71 -24.5 133t-76.5 100t-135 38q-78 0 -145 -34t-117.5 -92.5t-78.5 -132t-28 -151.5q0 -71 24.5 -132.5t76.5 -99.5t135 -38zM680 710l-584 -710h-25l584 710h25z" />
    <glyph glyph-name="Ugrave" unicode="&#xd9;" horiz-adv-x="723" 
d="M298 -5q-81 0 -128 31.5t-67 83.5t-20 115q0 32 4 64.5t11 65.5l75 355h20l-75 -355q-7 -32 -11 -63.5t-4 -63.5q0 -59 17.5 -107.5t60.5 -77t117 -28.5q76 0 133 29.5t96.5 79t64.5 110t38 121.5l75 355h20l-75 -355q-15 -72 -43 -137t-70.5 -115t-101.5 -79t-137 -29z
M383 918h32l44 -74l-16 -11z" />
    <glyph glyph-name="Uacute" unicode="&#xda;" horiz-adv-x="723" 
d="M298 -5q-81 0 -128 31.5t-67 83.5t-20 115q0 32 4 64.5t11 65.5l75 355h20l-75 -355q-7 -32 -11 -63.5t-4 -63.5q0 -59 17.5 -107.5t60.5 -77t117 -28.5q76 0 133 29.5t96.5 79t64.5 110t38 121.5l75 355h20l-75 -355q-15 -72 -43 -137t-70.5 -115t-101.5 -79t-137 -29z
M467 833l-13 12l76 73h33z" />
    <glyph glyph-name="Ucircumflex" unicode="&#xdb;" horiz-adv-x="723" 
d="M298 -5q-81 0 -128 31.5t-67 83.5t-20 115q0 32 4 64.5t11 65.5l75 355h20l-75 -355q-7 -32 -11 -63.5t-4 -63.5q0 -59 17.5 -107.5t60.5 -77t117 -28.5q76 0 133 29.5t96.5 79t64.5 110t38 121.5l75 355h20l-75 -355q-15 -72 -43 -137t-70.5 -115t-101.5 -79t-137 -29z
M374 815l104 74h16l73 -74l-18 -12l-68 63l-94 -63z" />
    <glyph glyph-name="Udieresis" unicode="&#xdc;" horiz-adv-x="723" 
d="M298 -5q-81 0 -128 31.5t-67 83.5t-20 115q0 32 4 64.5t11 65.5l75 355h20l-75 -355q-7 -32 -11 -63.5t-4 -63.5q0 -59 17.5 -107.5t60.5 -77t117 -28.5q76 0 133 29.5t96.5 79t64.5 110t38 121.5l75 355h20l-75 -355q-15 -72 -43 -137t-70.5 -115t-101.5 -79t-137 -29z
M408 841l16 77h20l-16 -77h-20zM519 841l16 77h20l-16 -77h-20z" />
    <glyph glyph-name="Yacute" unicode="&#xdd;" horiz-adv-x="594" 
d="M277 277l-180 433h23l172 -412l348 412h23l-366 -435l-59 -275h-20zM401 833l-13 12l76 73h33z" />
    <glyph glyph-name="Thorn" unicode="&#xde;" horiz-adv-x="574" 
d="M184 710h20l-32 -150h236q47 0 80.5 -25.5t51 -66t17.5 -85.5q0 -46 -18.5 -91t-51 -82t-75 -59t-89.5 -22h-243l-27 -129h-20zM327 149q44 0 82.5 21t67 55t44.5 74.5t16 80.5q0 43 -16.5 79t-46.5 58.5t-71 22.5h-235l-83 -391h242z" />
    <glyph glyph-name="germandbls" unicode="&#xdf;" horiz-adv-x="523" 
d="M159 13q89 2 152 29.5t96.5 78t33.5 119.5t-42.5 111t-116.5 42h-16l4 20h15q48 0 88.5 22t65.5 59t25 82q0 51 -34.5 84.5t-90.5 33.5q-47 0 -86.5 -23t-67.5 -64.5t-40 -97.5l-108 -509h-20l108 509q13 62 45 108t77 71.5t97 25.5q64 0 102.5 -37.5t38.5 -93.5
q0 -41 -21.5 -79.5t-56 -65t-72.5 -34.5q62 -14 94.5 -56t32.5 -103q0 -56 -20.5 -101.5t-59.5 -78t-96 -50.5t-131 -21z" />
    <glyph glyph-name="agrave" unicode="&#xe0;" horiz-adv-x="580" 
d="M216 -10q-57 0 -98.5 31.5t-64 82t-22.5 106.5q0 60 24 116.5t65 102t93 72t108 26.5q70 0 113.5 -38.5t62.5 -90.5l26 121h21l-102 -475q-1 -2 -1.5 -5.5t-0.5 -6.5q0 -12 12 -12l-4 -20h-4.5t-4.5 1q-10 3 -14.5 10t-4.5 18q0 3 1 8t4 20.5t10 50.5q-42 -52 -101 -85
t-118 -33zM218 10q32 0 68.5 13t70 35t58 51t33.5 60l40 187q-5 40 -27.5 74t-59 55.5t-83.5 21.5q-52 0 -100 -26.5t-85.5 -69.5t-59.5 -95.5t-22 -105.5t22 -98.5t59.5 -73.5t85.5 -28zM283 730h32l44 -74l-16 -11z" />
    <glyph glyph-name="aacute" unicode="&#xe1;" horiz-adv-x="580" 
d="M216 -10q-57 0 -98.5 31.5t-64 82t-22.5 106.5q0 60 24 116.5t65 102t93 72t108 26.5q70 0 113.5 -38.5t62.5 -90.5l26 121h21l-102 -475q-1 -2 -1.5 -5.5t-0.5 -6.5q0 -12 12 -12l-4 -20h-4.5t-4.5 1q-10 3 -14.5 10t-4.5 18q0 3 1 8t4 20.5t10 50.5q-42 -52 -101 -85
t-118 -33zM218 10q32 0 68.5 13t70 35t58 51t33.5 60l40 187q-5 40 -27.5 74t-59 55.5t-83.5 21.5q-52 0 -100 -26.5t-85.5 -69.5t-59.5 -95.5t-22 -105.5t22 -98.5t59.5 -73.5t85.5 -28zM367 645l-13 12l76 73h33z" />
    <glyph glyph-name="acircumflex" unicode="&#xe2;" horiz-adv-x="580" 
d="M216 -10q-57 0 -98.5 31.5t-64 82t-22.5 106.5q0 60 24 116.5t65 102t93 72t108 26.5q70 0 113.5 -38.5t62.5 -90.5l26 121h21l-102 -475q-1 -2 -1.5 -5.5t-0.5 -6.5q0 -12 12 -12l-4 -20h-4.5t-4.5 1q-10 3 -14.5 10t-4.5 18q0 3 1 8t4 20.5t10 50.5q-42 -52 -101 -85
t-118 -33zM218 10q32 0 68.5 13t70 35t58 51t33.5 60l40 187q-5 40 -27.5 74t-59 55.5t-83.5 21.5q-52 0 -100 -26.5t-85.5 -69.5t-59.5 -95.5t-22 -105.5t22 -98.5t59.5 -73.5t85.5 -28zM274 627l104 74h16l73 -74l-18 -12l-68 63l-94 -63z" />
    <glyph glyph-name="atilde" unicode="&#xe3;" horiz-adv-x="580" 
d="M216 -10q-57 0 -98.5 31.5t-64 82t-22.5 106.5q0 60 24 116.5t65 102t93 72t108 26.5q70 0 113.5 -38.5t62.5 -90.5l26 121h21l-102 -475q-1 -2 -1.5 -5.5t-0.5 -6.5q0 -12 12 -12l-4 -20h-4.5t-4.5 1q-10 3 -14.5 10t-4.5 18q0 3 1 8t4 20.5t10 50.5q-42 -52 -101 -85
t-118 -33zM218 10q32 0 68.5 13t70 35t58 51t33.5 60l40 187q-5 40 -27.5 74t-59 55.5t-83.5 21.5q-52 0 -100 -26.5t-85.5 -69.5t-59.5 -95.5t-22 -105.5t22 -98.5t59.5 -73.5t85.5 -28zM431 663q-28 0 -45.5 9.5t-31.5 19t-34 9.5t-33 -10.5t-19 -22.5t-7 -15h-19
q0 2 4.5 12.5t14 23t25.5 22t40 9.5q18 0 31 -5.5t24.5 -13.5t24.5 -13.5t31 -5.5q26 0 40 11t20 23t6 14h19q-1 -3 -5.5 -14t-15 -23t-27.5 -21t-43 -9z" />
    <glyph glyph-name="adieresis" unicode="&#xe4;" horiz-adv-x="580" 
d="M216 -10q-57 0 -98.5 31.5t-64 82t-22.5 106.5q0 60 24 116.5t65 102t93 72t108 26.5q70 0 113.5 -38.5t62.5 -90.5l26 121h21l-102 -475q-1 -2 -1.5 -5.5t-0.5 -6.5q0 -12 12 -12l-4 -20h-4.5t-4.5 1q-10 3 -14.5 10t-4.5 18q0 3 1 8t4 20.5t10 50.5q-42 -52 -101 -85
t-118 -33zM218 10q32 0 68.5 13t70 35t58 51t33.5 60l40 187q-5 40 -27.5 74t-59 55.5t-83.5 21.5q-52 0 -100 -26.5t-85.5 -69.5t-59.5 -95.5t-22 -105.5t22 -98.5t59.5 -73.5t85.5 -28zM308 653l16 77h20l-16 -77h-20zM419 653l16 77h20l-16 -77h-20z" />
    <glyph glyph-name="aring" unicode="&#xe5;" horiz-adv-x="580" 
d="M216 -10q-57 0 -98.5 31.5t-64 82t-22.5 106.5q0 60 24 116.5t65 102t93 72t108 26.5q70 0 113.5 -38.5t62.5 -90.5l26 121h21l-102 -475q-1 -2 -1.5 -5.5t-0.5 -6.5q0 -12 12 -12l-4 -20h-4.5t-4.5 1q-10 3 -14.5 10t-4.5 18q0 3 1 8t4 20.5t10 50.5q-42 -52 -101 -85
t-118 -33zM218 10q32 0 68.5 13t70 35t58 51t33.5 60l40 187q-5 40 -27.5 74t-59 55.5t-83.5 21.5q-52 0 -100 -26.5t-85.5 -69.5t-59.5 -95.5t-22 -105.5t22 -98.5t59.5 -73.5t85.5 -28zM322 662q0 28 21 48t47 20q20 0 31.5 -13t11.5 -33q0 -28 -21 -48t-47 -20
q-19 0 -31 13.5t-12 32.5zM386 714q-18 0 -33 -13.5t-15 -35.5q0 -14 8.5 -23.5t22.5 -9.5q16 0 32.5 14t16.5 35q0 15 -9 24t-23 9z" />
    <glyph glyph-name="ae" unicode="&#xe6;" horiz-adv-x="883" 
d="M137 -10q-68 0 -102 39t-34 91q0 53 32 93t86.5 62t121.5 22q34 0 68.5 -5.5t63.5 -14.5q7 26 18 51t25 48q0 60 -33 95.5t-92 35.5q-39 0 -83.5 -16.5t-92.5 -47.5l-8 16q109 68 188 68q58 0 96.5 -31.5t43.5 -92.5q43 56 102 90t122 34q55 0 98 -26t68 -71t25 -102
q0 -16 -2.5 -40t-10.5 -40h-450q-1 -11 -2 -21.5t-1 -20.5q0 -56 21.5 -100.5t59.5 -70t90 -25.5q57 0 112.5 30.5t86.5 78.5l18 -5q-21 -35 -57 -63.5t-79 -44.5t-86 -16q-61 0 -106 33t-66 88q-29 -43 -72.5 -70t-89 -39t-79.5 -12zM143 10q32 0 67.5 9.5t68.5 26.5
t57.5 40t33.5 51q-4 14 -6 30t-2 32q0 14 1.5 28t4.5 29q-30 11 -63.5 16t-65.5 5q-63 0 -112.5 -19t-77.5 -53t-28 -81q0 -29 12.5 -55t39.5 -42.5t70 -16.5zM821 268q4 14 5.5 28.5t1.5 28.5q0 47 -19 88.5t-57 67.5t-96 26t-112 -31t-94.5 -85t-58.5 -123h430z" />
    <glyph glyph-name="ccedilla" unicode="&#xe7;" horiz-adv-x="514" 
d="M219 -10q-56 0 -98.5 29.5t-66 79.5t-23.5 111q0 65 25 122t67.5 101t96.5 69t112 25q62 0 105 -30.5t56 -85.5l-22 -7q-13 48 -49.5 75.5t-86.5 27.5q-54 0 -105 -23.5t-91 -64t-64 -93.5t-24 -112q0 -56 21.5 -102.5t59.5 -74t88 -27.5q39 0 79 15.5t72.5 40.5t45.5 53
l19 -6q-18 -35 -53 -63t-78 -44t-86 -16zM178 -164q-22 0 -46.5 6t-44.5 19l11 15q20 -10 37.5 -16t43.5 -6q39 0 62 21t23 49q0 23 -13.5 41t-38.5 35l20 9q23 -18 36.5 -37t13.5 -45q0 -31 -14 -51.5t-37.5 -30t-52.5 -9.5z" />
    <glyph glyph-name="egrave" unicode="&#xe8;" horiz-adv-x="527" 
d="M230 -10q-59 0 -102.5 30t-67.5 80t-26 110q-2 59 18 115.5t58 102t90.5 72.5t114.5 27q45 0 82.5 -15.5t60.5 -47t24 -79.5q3 -79 -61 -108t-196 -29q-41 0 -84.5 1.5t-97.5 5.5l8 19q56 -3 97.5 -4.5t79.5 -1.5q89 0 140.5 12.5t73 38t19.5 64.5q-1 45 -24 72t-57 39.5
t-69 12.5q-55 0 -102.5 -26t-82.5 -68t-53.5 -92.5t-17.5 -99.5q2 -60 23.5 -108t61.5 -75.5t97 -27.5q68 0 116.5 32t76.5 86l21 -6q-21 -40 -52.5 -69.5t-73.5 -46t-95 -16.5zM257 730h32l44 -74l-16 -11z" />
    <glyph glyph-name="eacute" unicode="&#xe9;" horiz-adv-x="527" 
d="M230 -10q-59 0 -102.5 30t-67.5 80t-26 110q-2 59 18 115.5t58 102t90.5 72.5t114.5 27q45 0 82.5 -15.5t60.5 -47t24 -79.5q3 -79 -61 -108t-196 -29q-41 0 -84.5 1.5t-97.5 5.5l8 19q56 -3 97.5 -4.5t79.5 -1.5q89 0 140.5 12.5t73 38t19.5 64.5q-1 45 -24 72t-57 39.5
t-69 12.5q-55 0 -102.5 -26t-82.5 -68t-53.5 -92.5t-17.5 -99.5q2 -60 23.5 -108t61.5 -75.5t97 -27.5q68 0 116.5 32t76.5 86l21 -6q-21 -40 -52.5 -69.5t-73.5 -46t-95 -16.5zM341 645l-13 12l76 73h33z" />
    <glyph glyph-name="ecircumflex" unicode="&#xea;" horiz-adv-x="527" 
d="M230 -10q-59 0 -102.5 30t-67.5 80t-26 110q-2 59 18 115.5t58 102t90.5 72.5t114.5 27q45 0 82.5 -15.5t60.5 -47t24 -79.5q3 -79 -61 -108t-196 -29q-41 0 -84.5 1.5t-97.5 5.5l8 19q56 -3 97.5 -4.5t79.5 -1.5q89 0 140.5 12.5t73 38t19.5 64.5q-1 45 -24 72t-57 39.5
t-69 12.5q-55 0 -102.5 -26t-82.5 -68t-53.5 -92.5t-17.5 -99.5q2 -60 23.5 -108t61.5 -75.5t97 -27.5q68 0 116.5 32t76.5 86l21 -6q-21 -40 -52.5 -69.5t-73.5 -46t-95 -16.5zM248 627l104 74h16l73 -74l-18 -12l-68 63l-94 -63z" />
    <glyph glyph-name="edieresis" unicode="&#xeb;" horiz-adv-x="527" 
d="M230 -10q-59 0 -102.5 30t-67.5 80t-26 110q-2 59 18 115.5t58 102t90.5 72.5t114.5 27q45 0 82.5 -15.5t60.5 -47t24 -79.5q3 -79 -61 -108t-196 -29q-41 0 -84.5 1.5t-97.5 5.5l8 19q56 -3 97.5 -4.5t79.5 -1.5q89 0 140.5 12.5t73 38t19.5 64.5q-1 45 -24 72t-57 39.5
t-69 12.5q-55 0 -102.5 -26t-82.5 -68t-53.5 -92.5t-17.5 -99.5q2 -60 23.5 -108t61.5 -75.5t97 -27.5q68 0 116.5 32t76.5 86l21 -6q-21 -40 -52.5 -69.5t-73.5 -46t-95 -16.5zM282 653l16 77h20l-16 -77h-20zM393 653l16 77h20l-16 -77h-20z" />
    <glyph glyph-name="igrave" unicode="&#xec;" horiz-adv-x="182" 
d="M127 519h20l-110 -519h-20zM94 730h32l44 -74l-16 -11z" />
    <glyph glyph-name="iacute" unicode="&#xed;" horiz-adv-x="182" 
d="M127 519h20l-110 -519h-20zM160 645l-13 12l76 73h33z" />
    <glyph glyph-name="icircumflex" unicode="&#xee;" horiz-adv-x="182" 
d="M127 519h20l-110 -519h-20zM68 656l104 74h16l73 -74l-18 -12l-68 63l-94 -63z" />
    <glyph glyph-name="idieresis" unicode="&#xef;" horiz-adv-x="182" 
d="M127 519h20l-110 -519h-20zM101 653l16 77h20l-16 -77h-20zM212 653l16 77h20l-16 -77h-20z" />
    <glyph glyph-name="eth" unicode="&#xf0;" horiz-adv-x="568" 
d="M524 369q0 -88 -27 -158t-72 -119.5t-99.5 -75.5t-109.5 -26q-56 0 -99 27t-66.5 72.5t-23.5 100.5q0 57 25 108t67 91t94 63t106 23q74 0 123.5 -40.5t60.5 -104.5q2 15 2.5 29.5t0.5 30.5q0 55 -17 111t-61 113.5t-127 115.5h29q75 -54 117.5 -114.5t59.5 -123
t17 -123.5zM47 192q0 -50 22 -91.5t60.5 -66t89.5 -24.5q50 0 98 22.5t87 61t62.5 87t23.5 99.5q0 49 -22.5 88.5t-62 63t-90.5 23.5q-49 0 -97 -21.5t-86.5 -58t-61.5 -84t-23 -99.5zM534 699l-109 -66l-5 -3l-138 -83l-7 14l135 81l5 3l112 68z" />
    <glyph glyph-name="ntilde" unicode="&#xf1;" horiz-adv-x="540" 
d="M127 519h20l-28 -134q29 42 70 74t87 50t90 18q37 0 61.5 -13.5t36.5 -41.5t12 -71q0 -24 -3.5 -52t-10.5 -60l-61 -289h-20l61 289q7 32 10 58.5t3 48.5q0 57 -23 84t-70 27t-96.5 -23.5t-91.5 -64t-67 -91.5l-70 -328h-20zM414 663q-28 0 -45.5 9.5t-31.5 19t-34 9.5
t-33 -10.5t-19 -22.5t-7 -15h-19q0 2 4.5 12.5t14 23t25.5 22t40 9.5q18 0 31 -5.5t24.5 -13.5t24.5 -13.5t31 -5.5q26 0 40 11t20 23t6 14h19q-1 -3 -5.5 -14t-15 -23t-27.5 -21t-43 -9z" />
    <glyph glyph-name="ograve" unicode="&#xf2;" horiz-adv-x="561" 
d="M219 -10q-63 0 -105 29t-63 78t-21 108q0 68 24.5 126.5t66.5 102.5t95 68.5t109 24.5q63 0 104.5 -29.5t62.5 -78.5t21 -109q0 -67 -24 -125t-65.5 -102t-94.5 -68.5t-110 -24.5zM222 10q52 0 100.5 22.5t87 63t61 94.5t22.5 116q0 55 -19 100.5t-57 73t-96 27.5
q-52 0 -100.5 -23t-87 -64t-61 -95t-22.5 -117q0 -55 19 -100t57.5 -71.5t95.5 -26.5zM264 730h32l44 -74l-16 -11z" />
    <glyph glyph-name="oacute" unicode="&#xf3;" horiz-adv-x="561" 
d="M219 -10q-63 0 -105 29t-63 78t-21 108q0 68 24.5 126.5t66.5 102.5t95 68.5t109 24.5q63 0 104.5 -29.5t62.5 -78.5t21 -109q0 -67 -24 -125t-65.5 -102t-94.5 -68.5t-110 -24.5zM222 10q52 0 100.5 22.5t87 63t61 94.5t22.5 116q0 55 -19 100.5t-57 73t-96 27.5
q-52 0 -100.5 -23t-87 -64t-61 -95t-22.5 -117q0 -55 19 -100t57.5 -71.5t95.5 -26.5zM348 645l-13 12l76 73h33z" />
    <glyph glyph-name="ocircumflex" unicode="&#xf4;" horiz-adv-x="561" 
d="M219 -10q-63 0 -105 29t-63 78t-21 108q0 68 24.5 126.5t66.5 102.5t95 68.5t109 24.5q63 0 104.5 -29.5t62.5 -78.5t21 -109q0 -67 -24 -125t-65.5 -102t-94.5 -68.5t-110 -24.5zM222 10q52 0 100.5 22.5t87 63t61 94.5t22.5 116q0 55 -19 100.5t-57 73t-96 27.5
q-52 0 -100.5 -23t-87 -64t-61 -95t-22.5 -117q0 -55 19 -100t57.5 -71.5t95.5 -26.5zM255 627l104 74h16l73 -74l-18 -12l-68 63l-94 -63z" />
    <glyph glyph-name="otilde" unicode="&#xf5;" horiz-adv-x="561" 
d="M219 -10q-63 0 -105 29t-63 78t-21 108q0 68 24.5 126.5t66.5 102.5t95 68.5t109 24.5q63 0 104.5 -29.5t62.5 -78.5t21 -109q0 -67 -24 -125t-65.5 -102t-94.5 -68.5t-110 -24.5zM222 10q52 0 100.5 22.5t87 63t61 94.5t22.5 116q0 55 -19 100.5t-57 73t-96 27.5
q-52 0 -100.5 -23t-87 -64t-61 -95t-22.5 -117q0 -55 19 -100t57.5 -71.5t95.5 -26.5zM412 663q-28 0 -45.5 9.5t-31.5 19t-34 9.5t-33 -10.5t-19 -22.5t-7 -15h-19q0 2 4.5 12.5t14 23t25.5 22t40 9.5q18 0 31 -5.5t24.5 -13.5t24.5 -13.5t31 -5.5q26 0 40 11t20 23t6 14
h19q-1 -3 -5.5 -14t-15 -23t-27.5 -21t-43 -9z" />
    <glyph glyph-name="odieresis" unicode="&#xf6;" horiz-adv-x="561" 
d="M219 -10q-63 0 -105 29t-63 78t-21 108q0 68 24.5 126.5t66.5 102.5t95 68.5t109 24.5q63 0 104.5 -29.5t62.5 -78.5t21 -109q0 -67 -24 -125t-65.5 -102t-94.5 -68.5t-110 -24.5zM222 10q52 0 100.5 22.5t87 63t61 94.5t22.5 116q0 55 -19 100.5t-57 73t-96 27.5
q-52 0 -100.5 -23t-87 -64t-61 -95t-22.5 -117q0 -55 19 -100t57.5 -71.5t95.5 -26.5zM289 653l16 77h20l-16 -77h-20zM400 653l16 77h20l-16 -77h-20z" />
    <glyph glyph-name="divide" unicode="&#xf7;" horiz-adv-x="548" 
d="M257 385v64h20v-64h-20zM257 92v64h20v-64h-20zM66 261v20h403v-20h-403z" />
    <glyph glyph-name="oslash" unicode="&#xf8;" horiz-adv-x="561" 
d="M215 -10q-56 0 -97.5 29.5t-64.5 79t-23 108.5q0 63 26 121t69 102.5t96 70.5t108 26t96 -29.5t64.5 -79t23.5 -110.5q0 -62 -25.5 -119t-68 -102t-95.5 -71t-109 -26zM218 10q50 0 99 24t89 65.5t63.5 94.5t23.5 111q0 56 -21.5 101.5t-59 73t-87.5 27.5t-99 -24.5
t-89 -66t-63.5 -95t-23.5 -112.5q0 -55 21 -100t59 -72t88 -27zM95 51l14 -13l-30 -38h-24zM96 51l339 428l15 -13l-341 -428zM435 479l32 40h25l-42 -53z" />
    <glyph glyph-name="ugrave" unicode="&#xf9;" horiz-adv-x="551" 
d="M167 -10q-120 0 -120 139q0 22 3 46.5t9 52.5l62 291h20l-62 -291q-12 -55 -12 -97q0 -121 105 -121q48 0 96 23t89.5 63.5t66.5 92.5l70 330h20l-96 -452q-2 -11 -4.5 -21t-2.5 -12q0 -14 13 -14l-5 -20q-4 0 -7 0.5t-5 1.5q-7 3 -11 10t-4 17q0 2 1 7.5t5 26.5t14 69
q-46 -65 -112 -103.5t-133 -38.5zM269 730h32l44 -74l-16 -11z" />
    <glyph glyph-name="uacute" unicode="&#xfa;" horiz-adv-x="551" 
d="M167 -10q-120 0 -120 139q0 22 3 46.5t9 52.5l62 291h20l-62 -291q-12 -55 -12 -97q0 -121 105 -121q48 0 96 23t89.5 63.5t66.5 92.5l70 330h20l-96 -452q-2 -11 -4.5 -21t-2.5 -12q0 -14 13 -14l-5 -20q-4 0 -7 0.5t-5 1.5q-7 3 -11 10t-4 17q0 2 1 7.5t5 26.5t14 69
q-46 -65 -112 -103.5t-133 -38.5zM353 645l-13 12l76 73h33z" />
    <glyph glyph-name="ucircumflex" unicode="&#xfb;" horiz-adv-x="551" 
d="M167 -10q-120 0 -120 139q0 22 3 46.5t9 52.5l62 291h20l-62 -291q-12 -55 -12 -97q0 -121 105 -121q48 0 96 23t89.5 63.5t66.5 92.5l70 330h20l-96 -452q-2 -11 -4.5 -21t-2.5 -12q0 -14 13 -14l-5 -20q-4 0 -7 0.5t-5 1.5q-7 3 -11 10t-4 17q0 2 1 7.5t5 26.5t14 69
q-46 -65 -112 -103.5t-133 -38.5zM260 627l104 74h16l73 -74l-18 -12l-68 63l-94 -63z" />
    <glyph glyph-name="udieresis" unicode="&#xfc;" horiz-adv-x="551" 
d="M167 -10q-120 0 -120 139q0 22 3 46.5t9 52.5l62 291h20l-62 -291q-12 -55 -12 -97q0 -121 105 -121q48 0 96 23t89.5 63.5t66.5 92.5l70 330h20l-96 -452q-2 -11 -4.5 -21t-2.5 -12q0 -14 13 -14l-5 -20q-4 0 -7 0.5t-5 1.5q-7 3 -11 10t-4 17q0 2 1 7.5t5 26.5t14 69
q-46 -65 -112 -103.5t-133 -38.5zM294 653l16 77h20l-16 -77h-20zM405 653l16 77h20l-16 -77h-20z" />
    <glyph glyph-name="yacute" unicode="&#xfd;" horiz-adv-x="446" 
d="M-37 -207q41 8 66.5 24t48 44.5t52.5 75.5l41 63l-119 519h22l112 -494l58 92q47 75 79.5 130.5t55 100t38 85.5t28.5 86h21q-13 -48 -28.5 -90t-38 -87t-56.5 -102.5t-84 -136.5l-82 -129q-36 -56 -62 -92.5t-48.5 -58t-46.5 -32t-55 -15.5zM314 645l-13 12l76 73h33z
" />
    <glyph glyph-name="thorn" unicode="&#xfe;" horiz-adv-x="577" 
d="M-28 -213l196 923h20l-64 -301q42 52 102 85t116 33q59 0 100.5 -31.5t63.5 -82t22 -107.5q0 -59 -23 -115.5t-63 -101.5t-93 -72t-113 -27q-65 0 -109 38.5t-64 90.5l-71 -332h-20zM240 10q55 0 103.5 26t85.5 69t58 95t21 104q0 54 -21 100.5t-59.5 74.5t-90.5 28
q-28 0 -63.5 -13t-69.5 -35.5t-59 -51t-34 -59.5l-40 -187q9 -42 32.5 -76t58.5 -54.5t78 -20.5z" />
    <glyph glyph-name="ydieresis" unicode="&#xff;" horiz-adv-x="446" 
d="M-37 -207q41 8 66.5 24t48 44.5t52.5 75.5l41 63l-119 519h22l112 -494l58 92q47 75 79.5 130.5t55 100t38 85.5t28.5 86h21q-13 -48 -28.5 -90t-38 -87t-56.5 -102.5t-84 -136.5l-82 -129q-36 -56 -62 -92.5t-48.5 -58t-46.5 -32t-55 -15.5zM255 653l16 77h20l-16 -77
h-20zM366 653l16 77h20l-16 -77h-20z" />
    <glyph glyph-name="Amacron" unicode="&#x100;" horiz-adv-x="647" 
d="M406 710h18l142 -710h-22l-51 254h-351l-159 -254h-22zM489 274l-80 407l-255 -407h335zM318 877l4 20h266l-4 -20h-266z" />
    <glyph glyph-name="amacron" unicode="&#x101;" horiz-adv-x="580" 
d="M216 -10q-57 0 -98.5 31.5t-64 82t-22.5 106.5q0 60 24 116.5t65 102t93 72t108 26.5q70 0 113.5 -38.5t62.5 -90.5l26 121h21l-102 -475q-1 -2 -1.5 -5.5t-0.5 -6.5q0 -12 12 -12l-4 -20h-4.5t-4.5 1q-10 3 -14.5 10t-4.5 18q0 3 1 8t4 20.5t10 50.5q-42 -52 -101 -85
t-118 -33zM218 10q32 0 68.5 13t70 35t58 51t33.5 60l40 187q-5 40 -27.5 74t-59 55.5t-83.5 21.5q-52 0 -100 -26.5t-85.5 -69.5t-59.5 -95.5t-22 -105.5t22 -98.5t59.5 -73.5t85.5 -28zM248 686l4 20h266l-4 -20h-266z" />
    <glyph glyph-name="Abreve" unicode="&#x102;" horiz-adv-x="647" 
d="M406 710h18l142 -710h-22l-51 254h-351l-159 -254h-22zM489 274l-80 407l-255 -407h335zM448 861q20 0 39.5 17.5t26.5 42.5h18q-4 -20 -18 -38t-32 -28.5t-37 -10.5q-25 0 -41 18t-16 44q0 4 0.5 7.5t1.5 7.5h19q-1 -3 -1 -6v-5q0 -19 11.5 -34t28.5 -15z" />
    <glyph glyph-name="abreve" unicode="&#x103;" horiz-adv-x="580" 
d="M216 -10q-57 0 -98.5 31.5t-64 82t-22.5 106.5q0 60 24 116.5t65 102t93 72t108 26.5q70 0 113.5 -38.5t62.5 -90.5l26 121h21l-102 -475q-1 -2 -1.5 -5.5t-0.5 -6.5q0 -12 12 -12l-4 -20h-4.5t-4.5 1q-10 3 -14.5 10t-4.5 18q0 3 1 8t4 20.5t10 50.5q-42 -52 -101 -85
t-118 -33zM218 10q32 0 68.5 13t70 35t58 51t33.5 60l40 187q-5 40 -27.5 74t-59 55.5t-83.5 21.5q-52 0 -100 -26.5t-85.5 -69.5t-59.5 -95.5t-22 -105.5t22 -98.5t59.5 -73.5t85.5 -28zM378 670q20 0 39.5 17.5t26.5 42.5h18q-4 -20 -18 -38t-32 -28.5t-37 -10.5
q-25 0 -41 18t-16 44q0 4 0.5 7.5t1.5 7.5h19q-1 -3 -1 -6v-5q0 -19 11.5 -34t28.5 -15z" />
    <glyph glyph-name="Aogonek" unicode="&#x104;" horiz-adv-x="647" 
d="M406 710h18l142 -710h-22l-51 254h-351l-159 -254h-22zM489 274l-80 407l-255 -407h335zM471 -113q0 30 22 59t64 66h4l5 -12q-44 -37 -61 -60.5t-17 -45.5q0 -14 10 -23.5t34 -17.5l-13 -17q-25 7 -36.5 20t-11.5 31z" />
    <glyph glyph-name="aogonek" unicode="&#x105;" horiz-adv-x="580" 
d="M216 -10q-57 0 -98.5 31.5t-64 82t-22.5 106.5q0 60 24 116.5t65 102t93 72t108 26.5q70 0 113.5 -38.5t62.5 -90.5l26 121h21l-102 -475q-1 -2 -1.5 -5.5t-0.5 -6.5q0 -12 12 -12l-4 -20h-4.5t-4.5 1q-10 3 -14.5 10t-4.5 18q0 3 1 8t4 20.5t10 50.5q-42 -52 -101 -85
t-118 -33zM218 10q32 0 68.5 13t70 35t58 51t33.5 60l40 187q-5 40 -27.5 74t-59 55.5t-83.5 21.5q-52 0 -100 -26.5t-85.5 -69.5t-59.5 -95.5t-22 -105.5t22 -98.5t59.5 -73.5t85.5 -28zM353 -113q0 30 22 59t64 66h4l5 -12q-44 -37 -61 -60.5t-17 -45.5q0 -14 10 -23.5
t34 -17.5l-13 -17q-25 7 -36.5 20t-11.5 31z" />
    <glyph glyph-name="Cacute" unicode="&#x106;" horiz-adv-x="663" 
d="M307 -6q-61 0 -108.5 25t-80 67t-49.5 94.5t-17 107.5q0 60 19.5 120.5t55 115.5t85 97.5t110.5 67.5t130 25q92 0 145.5 -43.5t69.5 -111.5l-20 -6q-15 52 -44 83t-68 44.5t-84 13.5q-80 0 -149 -36.5t-120.5 -96.5t-80.5 -132.5t-29 -144.5q0 -71 28.5 -133t81.5 -99.5
t128 -37.5q44 0 92 15.5t94.5 48.5t83.5 86l18 -5q-34 -54 -83 -91t-103 -55.5t-105 -18.5zM450 836l-13 12l76 73h33z" />
    <glyph glyph-name="cacute" unicode="&#x107;" horiz-adv-x="514" 
d="M219 -10q-56 0 -98.5 29.5t-66 79.5t-23.5 111q0 65 25 122t67.5 101t96.5 69t112 25q62 0 105 -30.5t56 -85.5l-22 -7q-13 48 -49.5 75.5t-86.5 27.5q-54 0 -105 -23.5t-91 -64t-64 -93.5t-24 -112q0 -56 21.5 -102.5t59.5 -74t88 -27.5q39 0 79 15.5t72.5 40.5t45.5 53
l19 -6q-18 -35 -53 -63t-78 -44t-86 -16zM352 645l-13 12l76 73h33z" />
    <glyph glyph-name="Ccircumflex" unicode="&#x108;" horiz-adv-x="663" 
d="M307 -6q-61 0 -108.5 25t-80 67t-49.5 94.5t-17 107.5q0 60 19.5 120.5t55 115.5t85 97.5t110.5 67.5t130 25q92 0 145.5 -43.5t69.5 -111.5l-20 -6q-15 52 -44 83t-68 44.5t-84 13.5q-80 0 -149 -36.5t-120.5 -96.5t-80.5 -132.5t-29 -144.5q0 -71 28.5 -133t81.5 -99.5
t128 -37.5q44 0 92 15.5t94.5 48.5t83.5 86l18 -5q-34 -54 -83 -91t-103 -55.5t-105 -18.5zM357 818l104 74h16l73 -74l-18 -12l-68 63l-94 -63z" />
    <glyph glyph-name="ccircumflex" unicode="&#x109;" horiz-adv-x="514" 
d="M219 -10q-56 0 -98.5 29.5t-66 79.5t-23.5 111q0 65 25 122t67.5 101t96.5 69t112 25q62 0 105 -30.5t56 -85.5l-22 -7q-13 48 -49.5 75.5t-86.5 27.5q-54 0 -105 -23.5t-91 -64t-64 -93.5t-24 -112q0 -56 21.5 -102.5t59.5 -74t88 -27.5q39 0 79 15.5t72.5 40.5t45.5 53
l19 -6q-18 -35 -53 -63t-78 -44t-86 -16zM259 627l104 74h16l73 -74l-18 -12l-68 63l-94 -63z" />
    <glyph glyph-name="Cdotaccent" unicode="&#x10a;" horiz-adv-x="663" 
d="M307 -6q-61 0 -108.5 25t-80 67t-49.5 94.5t-17 107.5q0 60 19.5 120.5t55 115.5t85 97.5t110.5 67.5t130 25q92 0 145.5 -43.5t69.5 -111.5l-20 -6q-15 52 -44 83t-68 44.5t-84 13.5q-80 0 -149 -36.5t-120.5 -96.5t-80.5 -132.5t-29 -144.5q0 -71 28.5 -133t81.5 -99.5
t128 -37.5q44 0 92 15.5t94.5 48.5t83.5 86l18 -5q-34 -54 -83 -91t-103 -55.5t-105 -18.5zM447 844l16 77h20l-16 -77h-20z" />
    <glyph glyph-name="cdotaccent" unicode="&#x10b;" horiz-adv-x="514" 
d="M219 -10q-56 0 -98.5 29.5t-66 79.5t-23.5 111q0 65 25 122t67.5 101t96.5 69t112 25q62 0 105 -30.5t56 -85.5l-22 -7q-13 48 -49.5 75.5t-86.5 27.5q-54 0 -105 -23.5t-91 -64t-64 -93.5t-24 -112q0 -56 21.5 -102.5t59.5 -74t88 -27.5q39 0 79 15.5t72.5 40.5t45.5 53
l19 -6q-18 -35 -53 -63t-78 -44t-86 -16zM349 653l16 77h20l-16 -77h-20z" />
    <glyph glyph-name="Ccaron" unicode="&#x10c;" horiz-adv-x="663" 
d="M307 -6q-61 0 -108.5 25t-80 67t-49.5 94.5t-17 107.5q0 60 19.5 120.5t55 115.5t85 97.5t110.5 67.5t130 25q92 0 145.5 -43.5t69.5 -111.5l-20 -6q-15 52 -44 83t-68 44.5t-84 13.5q-80 0 -149 -36.5t-120.5 -96.5t-80.5 -132.5t-29 -144.5q0 -71 28.5 -133t81.5 -99.5
t128 -37.5q44 0 92 15.5t94.5 48.5t83.5 86l18 -5q-34 -54 -83 -91t-103 -55.5t-105 -18.5zM367 909l18 12l68 -63l94 63l13 -12l-104 -74h-16z" />
    <glyph glyph-name="ccaron" unicode="&#x10d;" horiz-adv-x="514" 
d="M219 -10q-56 0 -98.5 29.5t-66 79.5t-23.5 111q0 65 25 122t67.5 101t96.5 69t112 25q62 0 105 -30.5t56 -85.5l-22 -7q-13 48 -49.5 75.5t-86.5 27.5q-54 0 -105 -23.5t-91 -64t-64 -93.5t-24 -112q0 -56 21.5 -102.5t59.5 -74t88 -27.5q39 0 79 15.5t72.5 40.5t45.5 53
l19 -6q-18 -35 -53 -63t-78 -44t-86 -16zM269 718l18 12l68 -63l94 63l13 -12l-104 -74h-16z" />
    <glyph glyph-name="Dcaron" unicode="&#x10e;" horiz-adv-x="684" 
d="M184 710h217q87 0 142.5 -36t82.5 -97t27 -137q0 -94 -30 -174.5t-84 -140t-128 -92.5t-161 -33h-217zM254 20q89 0 159 33.5t119 92t75 133t26 156.5q0 75 -26.5 132.5t-79 90t-130.5 32.5h-197l-143 -670h197zM347 909l18 12l68 -63l94 63l13 -12l-104 -74h-16z" />
    <glyph glyph-name="dcaron" unicode="&#x10f;" horiz-adv-x="579" 
d="M218 -10q-59 0 -101 31.5t-64 82t-22 107.5q0 60 24 116t65 101.5t93.5 72t109.5 26.5q68 0 111.5 -38.5t62.5 -90.5l70 332h21l-147 -687q-1 -3 -1 -5.5v-4.5q0 -13 12 -13l-4 -20q-4 0 -7 0.5t-5 1.5q-8 3 -12 10.5t-4 17.5q0 2 0.5 6.5t4 20.5t10.5 51
q-42 -52 -101.5 -85t-115.5 -33zM222 10q29 0 64 12.5t69 35t59 51t34 60.5l40 187q-5 42 -30.5 76t-62 54.5t-76.5 20.5q-55 0 -103.5 -26t-85.5 -69t-58 -95t-21 -104q0 -54 21.5 -100.5t60 -74.5t89.5 -28zM609 657l76 73h33l-96 -85z" />
    <glyph glyph-name="Dcroat" unicode="&#x110;" horiz-adv-x="691" 
d="M51 367h269l-4 -20h-269zM191 710h217q87 0 142.5 -36t82.5 -97t27 -137q0 -94 -30 -174.5t-84 -140t-128 -92.5t-161 -33h-217zM261 20q89 0 159 33.5t119 92t75 133t26 156.5q0 75 -26.5 132.5t-79 90t-130.5 32.5h-197l-143 -670h197z" />
    <glyph glyph-name="dcroat" unicode="&#x111;" horiz-adv-x="579" 
d="M433 653h210l-4 -20h-210zM218 -10q-59 0 -101 31.5t-64 82t-22 107.5q0 60 24 116t65 101.5t93.5 72t109.5 26.5q68 0 111.5 -38.5t62.5 -90.5l70 332h21l-147 -687q-1 -3 -1 -5.5v-4.5q0 -13 12 -13l-4 -20q-4 0 -7 0.5t-5 1.5q-8 3 -12 10.5t-4 17.5q0 2 0.5 6.5
t4 20.5t10.5 51q-42 -52 -101.5 -85t-115.5 -33zM222 10q29 0 64 12.5t69 35t59 51t34 60.5l40 187q-5 42 -30.5 76t-62 54.5t-76.5 20.5q-55 0 -103.5 -26t-85.5 -69t-58 -95t-21 -104q0 -54 21.5 -100.5t60 -74.5t89.5 -28z" />
    <glyph glyph-name="Emacron" unicode="&#x112;" horiz-adv-x="588" 
d="M184 710h434l-4 -20h-414l-68 -317h363l-4 -20h-363l-71 -333h423l-4 -20h-443zM293 877l4 20h266l-4 -20h-266z" />
    <glyph glyph-name="emacron" unicode="&#x113;" horiz-adv-x="527" 
d="M230 -10q-59 0 -102.5 30t-67.5 80t-26 110q-2 59 18 115.5t58 102t90.5 72.5t114.5 27q45 0 82.5 -15.5t60.5 -47t24 -79.5q3 -79 -61 -108t-196 -29q-41 0 -84.5 1.5t-97.5 5.5l8 19q56 -3 97.5 -4.5t79.5 -1.5q89 0 140.5 12.5t73 38t19.5 64.5q-1 45 -24 72t-57 39.5
t-69 12.5q-55 0 -102.5 -26t-82.5 -68t-53.5 -92.5t-17.5 -99.5q2 -60 23.5 -108t61.5 -75.5t97 -27.5q68 0 116.5 32t76.5 86l21 -6q-21 -40 -52.5 -69.5t-73.5 -46t-95 -16.5zM222 686l4 20h266l-4 -20h-266z" />
    <glyph glyph-name="Ebreve" unicode="&#x114;" horiz-adv-x="588" 
d="M184 710h434l-4 -20h-414l-68 -317h363l-4 -20h-363l-71 -333h423l-4 -20h-443zM423 861q20 0 39.5 17.5t26.5 42.5h18q-4 -20 -18 -38t-32 -28.5t-37 -10.5q-25 0 -41 18t-16 44q0 4 0.5 7.5t1.5 7.5h19q-1 -3 -1 -6v-5q0 -19 11.5 -34t28.5 -15z" />
    <glyph glyph-name="ebreve" unicode="&#x115;" horiz-adv-x="527" 
d="M230 -10q-59 0 -102.5 30t-67.5 80t-26 110q-2 59 18 115.5t58 102t90.5 72.5t114.5 27q45 0 82.5 -15.5t60.5 -47t24 -79.5q3 -79 -61 -108t-196 -29q-41 0 -84.5 1.5t-97.5 5.5l8 19q56 -3 97.5 -4.5t79.5 -1.5q89 0 140.5 12.5t73 38t19.5 64.5q-1 45 -24 72t-57 39.5
t-69 12.5q-55 0 -102.5 -26t-82.5 -68t-53.5 -92.5t-17.5 -99.5q2 -60 23.5 -108t61.5 -75.5t97 -27.5q68 0 116.5 32t76.5 86l21 -6q-21 -40 -52.5 -69.5t-73.5 -46t-95 -16.5zM352 670q20 0 39.5 17.5t26.5 42.5h18q-4 -20 -18 -38t-32 -28.5t-37 -10.5q-25 0 -41 18
t-16 44q0 4 0.5 7.5t1.5 7.5h19q-1 -3 -1 -6v-5q0 -19 11.5 -34t28.5 -15z" />
    <glyph glyph-name="Edotaccent" unicode="&#x116;" horiz-adv-x="588" 
d="M184 710h434l-4 -20h-414l-68 -317h363l-4 -20h-363l-71 -333h423l-4 -20h-443zM409 844l16 77h20l-16 -77h-20z" />
    <glyph glyph-name="edotaccent" unicode="&#x117;" horiz-adv-x="527" 
d="M230 -10q-59 0 -102.5 30t-67.5 80t-26 110q-2 59 18 115.5t58 102t90.5 72.5t114.5 27q45 0 82.5 -15.5t60.5 -47t24 -79.5q3 -79 -61 -108t-196 -29q-41 0 -84.5 1.5t-97.5 5.5l8 19q56 -3 97.5 -4.5t79.5 -1.5q89 0 140.5 12.5t73 38t19.5 64.5q-1 45 -24 72t-57 39.5
t-69 12.5q-55 0 -102.5 -26t-82.5 -68t-53.5 -92.5t-17.5 -99.5q2 -60 23.5 -108t61.5 -75.5t97 -27.5q68 0 116.5 32t76.5 86l21 -6q-21 -40 -52.5 -69.5t-73.5 -46t-95 -16.5zM338 653l16 77h20l-16 -77h-20z" />
    <glyph glyph-name="Eogonek" unicode="&#x118;" horiz-adv-x="588" 
d="M184 710h434l-4 -20h-414l-68 -317h363l-4 -20h-363l-71 -333h423l-4 -20h-443zM381 -113q0 30 22 59t64 66h4l5 -12q-44 -37 -61 -60.5t-17 -45.5q0 -14 10 -23.5t34 -17.5l-13 -17q-25 7 -36.5 20t-11.5 31z" />
    <glyph glyph-name="eogonek" unicode="&#x119;" horiz-adv-x="527" 
d="M230 -10q-59 0 -102.5 30t-67.5 80t-26 110q-2 59 18 115.5t58 102t90.5 72.5t114.5 27q45 0 82.5 -15.5t60.5 -47t24 -79.5q3 -79 -61 -108t-196 -29q-41 0 -84.5 1.5t-97.5 5.5l8 19q56 -3 97.5 -4.5t79.5 -1.5q89 0 140.5 12.5t73 38t19.5 64.5q-1 45 -24 72t-57 39.5
t-69 12.5q-55 0 -102.5 -26t-82.5 -68t-53.5 -92.5t-17.5 -99.5q2 -60 23.5 -108t61.5 -75.5t97 -27.5q68 0 116.5 32t76.5 86l21 -6q-21 -40 -52.5 -69.5t-73.5 -46t-95 -16.5zM236 -103q0 30 22 59t64 66h4l5 -12q-44 -37 -61 -60.5t-17 -45.5q0 -14 10 -23.5t34 -17.5
l-13 -17q-25 7 -36.5 20t-11.5 31z" />
    <glyph glyph-name="Ecaron" unicode="&#x11a;" horiz-adv-x="588" 
d="M184 710h434l-4 -20h-414l-68 -317h363l-4 -20h-363l-71 -333h423l-4 -20h-443zM329 909l18 12l68 -63l94 63l13 -12l-104 -74h-16z" />
    <glyph glyph-name="ecaron" unicode="&#x11b;" horiz-adv-x="527" 
d="M230 -10q-59 0 -102.5 30t-67.5 80t-26 110q-2 59 18 115.5t58 102t90.5 72.5t114.5 27q45 0 82.5 -15.5t60.5 -47t24 -79.5q3 -79 -61 -108t-196 -29q-41 0 -84.5 1.5t-97.5 5.5l8 19q56 -3 97.5 -4.5t79.5 -1.5q89 0 140.5 12.5t73 38t19.5 64.5q-1 45 -24 72t-57 39.5
t-69 12.5q-55 0 -102.5 -26t-82.5 -68t-53.5 -92.5t-17.5 -99.5q2 -60 23.5 -108t61.5 -75.5t97 -27.5q68 0 116.5 32t76.5 86l21 -6q-21 -40 -52.5 -69.5t-73.5 -46t-95 -16.5zM258 718l18 12l68 -63l94 63l13 -12l-104 -74h-16z" />
    <glyph glyph-name="Gcircumflex" unicode="&#x11c;" horiz-adv-x="688" 
d="M301 -5q-61 0 -108 25t-78 67.5t-47 96t-16 109.5q0 81 30.5 156.5t84.5 135.5t126.5 95t157.5 35q95 0 148 -43.5t69 -111.5l-20 -6q-21 71 -70 106t-127 35q-82 0 -151.5 -34.5t-120.5 -93t-79 -129.5t-28 -145t29 -137.5t82.5 -102t126.5 -38.5q66 0 136 36.5
t146 114.5l-6 -30q-69 -70 -142 -105.5t-143 -35.5zM613 318h-158l4 20h178l-72 -338h-20zM370 815l104 74h16l73 -74l-18 -12l-68 63l-94 -63z" />
    <glyph glyph-name="gcircumflex" unicode="&#x11d;" horiz-adv-x="576" 
d="M166 -223q-82 0 -127 34.5t-61 89.5l20 6q20 -58 62 -84t110 -26q54 0 103 20.5t84.5 61t48.5 99.5l28 130q-42 -52 -102 -85t-116 -33q-58 0 -100 31.5t-64 82t-22 107.5q0 58 23.5 114t64.5 101.5t93.5 73t110.5 27.5q67 0 108 -38t66 -91l26 121h19l-115 -541
q-14 -68 -54.5 -113t-95 -66.5t-110.5 -21.5zM221 10q35 0 71 14t68.5 37.5t55.5 51.5t31 56l40 187q-6 44 -30.5 78t-60.5 53.5t-78 19.5q-57 0 -106 -27t-85 -71t-56.5 -95.5t-20.5 -100.5q0 -54 21 -100.5t59.5 -74.5t90.5 -28zM263 627l104 74h16l73 -74l-18 -12l-68 63
l-94 -63z" />
    <glyph glyph-name="Gbreve" unicode="&#x11e;" horiz-adv-x="688" 
d="M301 -5q-61 0 -108 25t-78 67.5t-47 96t-16 109.5q0 81 30.5 156.5t84.5 135.5t126.5 95t157.5 35q95 0 148 -43.5t69 -111.5l-20 -6q-21 71 -70 106t-127 35q-82 0 -151.5 -34.5t-120.5 -93t-79 -129.5t-28 -145t29 -137.5t82.5 -102t126.5 -38.5q66 0 136 36.5
t146 114.5l-6 -30q-69 -70 -142 -105.5t-143 -35.5zM613 318h-158l4 20h178l-72 -338h-20zM474 858q20 0 39.5 17.5t26.5 42.5h18q-4 -20 -18 -38t-32 -28.5t-37 -10.5q-25 0 -41 18t-16 44q0 4 0.5 7.5t1.5 7.5h19q-1 -3 -1 -6v-5q0 -19 11.5 -34t28.5 -15z" />
    <glyph glyph-name="gbreve" unicode="&#x11f;" horiz-adv-x="576" 
d="M166 -223q-82 0 -127 34.5t-61 89.5l20 6q20 -58 62 -84t110 -26q54 0 103 20.5t84.5 61t48.5 99.5l28 130q-42 -52 -102 -85t-116 -33q-58 0 -100 31.5t-64 82t-22 107.5q0 58 23.5 114t64.5 101.5t93.5 73t110.5 27.5q67 0 108 -38t66 -91l26 121h19l-115 -541
q-14 -68 -54.5 -113t-95 -66.5t-110.5 -21.5zM221 10q35 0 71 14t68.5 37.5t55.5 51.5t31 56l40 187q-6 44 -30.5 78t-60.5 53.5t-78 19.5q-57 0 -106 -27t-85 -71t-56.5 -95.5t-20.5 -100.5q0 -54 21 -100.5t59.5 -74.5t90.5 -28zM367 670q20 0 39.5 17.5t26.5 42.5h18
q-4 -20 -18 -38t-32 -28.5t-37 -10.5q-25 0 -41 18t-16 44q0 4 0.5 7.5t1.5 7.5h19q-1 -3 -1 -6v-5q0 -19 11.5 -34t28.5 -15z" />
    <glyph glyph-name="Gdotaccent" unicode="&#x120;" horiz-adv-x="688" 
d="M301 -5q-61 0 -108 25t-78 67.5t-47 96t-16 109.5q0 81 30.5 156.5t84.5 135.5t126.5 95t157.5 35q95 0 148 -43.5t69 -111.5l-20 -6q-21 71 -70 106t-127 35q-82 0 -151.5 -34.5t-120.5 -93t-79 -129.5t-28 -145t29 -137.5t82.5 -102t126.5 -38.5q66 0 136 36.5
t146 114.5l-6 -30q-69 -70 -142 -105.5t-143 -35.5zM613 318h-158l4 20h178l-72 -338h-20zM460 841l16 77h20l-16 -77h-20z" />
    <glyph glyph-name="gdotaccent" unicode="&#x121;" horiz-adv-x="576" 
d="M166 -223q-82 0 -127 34.5t-61 89.5l20 6q20 -58 62 -84t110 -26q54 0 103 20.5t84.5 61t48.5 99.5l28 130q-42 -52 -102 -85t-116 -33q-58 0 -100 31.5t-64 82t-22 107.5q0 58 23.5 114t64.5 101.5t93.5 73t110.5 27.5q67 0 108 -38t66 -91l26 121h19l-115 -541
q-14 -68 -54.5 -113t-95 -66.5t-110.5 -21.5zM221 10q35 0 71 14t68.5 37.5t55.5 51.5t31 56l40 187q-6 44 -30.5 78t-60.5 53.5t-78 19.5q-57 0 -106 -27t-85 -71t-56.5 -95.5t-20.5 -100.5q0 -54 21 -100.5t59.5 -74.5t90.5 -28zM353 653l16 77h20l-16 -77h-20z" />
    <glyph glyph-name="uni0122" unicode="&#x122;" horiz-adv-x="688" 
d="M301 -5q-61 0 -108 25t-78 67.5t-47 96t-16 109.5q0 81 30.5 156.5t84.5 135.5t126.5 95t157.5 35q95 0 148 -43.5t69 -111.5l-20 -6q-21 71 -70 106t-127 35q-82 0 -151.5 -34.5t-120.5 -93t-79 -129.5t-28 -145t29 -137.5t82.5 -102t126.5 -38.5q66 0 136 36.5
t146 114.5l-6 -30q-69 -70 -142 -105.5t-143 -35.5zM613 318h-158l4 20h178l-72 -338h-20zM252 -167l22 58h-9l13 59h25l-12 -59l-25 -58h-14z" />
    <glyph glyph-name="uni0123" unicode="&#x123;" horiz-adv-x="576" 
d="M166 -223q-82 0 -127 34.5t-61 89.5l20 6q20 -58 62 -84t110 -26q54 0 103 20.5t84.5 61t48.5 99.5l28 130q-42 -52 -102 -85t-116 -33q-58 0 -100 31.5t-64 82t-22 107.5q0 58 23.5 114t64.5 101.5t93.5 73t110.5 27.5q67 0 108 -38t66 -91l26 121h19l-115 -541
q-14 -68 -54.5 -113t-95 -66.5t-110.5 -21.5zM221 10q35 0 71 14t68.5 37.5t55.5 51.5t31 56l40 187q-6 44 -30.5 78t-60.5 53.5t-78 19.5q-57 0 -106 -27t-85 -71t-56.5 -95.5t-20.5 -100.5q0 -54 21 -100.5t59.5 -74.5t90.5 -28zM385 730l-17 -58h10l-12 -59h-26l13 59
l18 58h14z" />
    <glyph glyph-name="Hcircumflex" unicode="&#x124;" horiz-adv-x="701" 
d="M184 710h20l-72 -337h467l72 337h20l-151 -710h-20l75 353h-467l-75 -353h-20zM376 818l104 74h16l73 -74l-18 -12l-68 63l-94 -63z" />
    <glyph glyph-name="hcircumflex" unicode="&#x125;" horiz-adv-x="540" 
d="M292 818l104 74h16l73 -74l-18 -12l-68 63l-94 -63zM172 730h20l-73 -345q44 65 108.5 103.5t128.5 38.5q39 0 65 -15.5t39.5 -46.5t13.5 -77q0 -21 -3 -46t-9 -53l-61 -289h-20l61 289q5 27 8.5 51t3.5 44q0 61 -26 92t-76 31q-46 0 -93.5 -23.5t-87.5 -64t-64 -91.5
l-70 -328h-20z" />
    <glyph glyph-name="Hbar" unicode="&#x126;" horiz-adv-x="709" 
d="M112 574h601l-4 -20h-602zM188 710h20l-72 -337h467l72 337h20l-151 -710h-20l75 353h-467l-75 -353h-20z" />
    <glyph glyph-name="hbar" unicode="&#x127;" horiz-adv-x="540" 
d="M86 653h209l-4 -20h-209zM172 730h20l-73 -345q44 65 108.5 103.5t128.5 38.5q39 0 65 -15.5t39.5 -46.5t13.5 -77q0 -21 -3 -46t-9 -53l-61 -289h-20l61 289q5 27 8.5 51t3.5 44q0 61 -26 92t-76 31q-46 0 -93.5 -23.5t-87.5 -64t-64 -91.5l-70 -328h-20z" />
    <glyph glyph-name="Itilde" unicode="&#x128;" horiz-adv-x="214" 
d="M184 709h20l-151 -709h-20zM279 851q-28 0 -45.5 9.5t-31.5 19t-34 9.5t-33 -10.5t-19 -22.5t-7 -15h-19q0 2 4.5 12.5t14 23t25.5 22t40 9.5q18 0 31 -5.5t24.5 -13.5t24.5 -13.5t31 -5.5q26 0 40 11t20 23t6 14h19q-1 -3 -5.5 -14t-15 -23t-27.5 -21t-43 -9z" />
    <glyph glyph-name="itilde" unicode="&#x129;" horiz-adv-x="182" 
d="M127 519h20l-110 -519h-20zM226 663q-28 0 -45.5 9.5t-31.5 19t-34 9.5t-33 -10.5t-19 -22.5t-7 -15h-19q0 2 4.5 12.5t14 23t25.5 22t40 9.5q18 0 31 -5.5t24.5 -13.5t24.5 -13.5t31 -5.5q26 0 40 11t20 23t6 14h19q-1 -3 -5.5 -14t-15 -23t-27.5 -21t-43 -9z" />
    <glyph glyph-name="Imacron" unicode="&#x12a;" horiz-adv-x="214" 
d="M184 709h20l-151 -709h-20zM96 874l4 20h266l-4 -20h-266z" />
    <glyph glyph-name="imacron" unicode="&#x12b;" horiz-adv-x="182" 
d="M127 519h20l-110 -519h-20zM41 686l4 20h266l-4 -20h-266z" />
    <glyph glyph-name="Ibreve" unicode="&#x12c;" horiz-adv-x="214" 
d="M184 709h20l-151 -709h-20zM226 858q20 0 39.5 17.5t26.5 42.5h18q-4 -20 -18 -38t-32 -28.5t-37 -10.5q-25 0 -41 18t-16 44q0 4 0.5 7.5t1.5 7.5h19q-1 -3 -1 -6v-5q0 -19 11.5 -34t28.5 -15z" />
    <glyph glyph-name="ibreve" unicode="&#x12d;" horiz-adv-x="182" 
d="M127 519h20l-110 -519h-20zM171 670q20 0 39.5 17.5t26.5 42.5h18q-4 -20 -18 -38t-32 -28.5t-37 -10.5q-25 0 -41 18t-16 44q0 4 0.5 7.5t1.5 7.5h19q-1 -3 -1 -6v-5q0 -19 11.5 -34t28.5 -15z" />
    <glyph glyph-name="Iogonek" unicode="&#x12e;" horiz-adv-x="214" 
d="M184 709h20l-151 -709h-20zM-42 -113q0 30 22 59t64 66h4l5 -12q-44 -37 -61 -60.5t-17 -45.5q0 -14 10 -23.5t34 -17.5l-13 -17q-25 7 -36.5 20t-11.5 31z" />
    <glyph glyph-name="iogonek" unicode="&#x12f;" horiz-adv-x="182" 
d="M127 519h20l-110 -519h-20zM172 730h20l-16 -77h-20zM-58 -113q0 30 22 59t64 66h4l5 -12q-44 -37 -61 -60.5t-17 -45.5q0 -14 10 -23.5t34 -17.5l-13 -17q-25 7 -36.5 20t-11.5 31z" />
    <glyph glyph-name="Idotaccent" unicode="&#x130;" horiz-adv-x="214" 
d="M184 709h20l-151 -709h-20zM212 841l16 77h20l-16 -77h-20z" />
    <glyph glyph-name="dotlessi" unicode="&#x131;" horiz-adv-x="182" 
d="M127 519h20l-110 -519h-20z" />
    <glyph glyph-name="IJ" unicode="&#x132;" horiz-adv-x="672" 
d="M184 709h20l-151 -709h-20zM324 -11q-49 0 -81.5 12t-60.5 32l14 16q23 -18 55.5 -30t76.5 -12q60 0 100 24t66.5 68.5t45 107.5t35.5 142l77 360h20l-77 -360q-18 -85 -37.5 -151.5t-48 -113t-73 -71t-112.5 -24.5z" />
    <glyph glyph-name="ij" unicode="&#x133;" horiz-adv-x="372" 
d="M127 519h20l-110 -519h-20zM172 730h20l-16 -77h-20zM64 -170q-28 0 -51 7.5t-37 26.5l18 12q14 -16 34 -21t39 -5q26 0 54 15t49.5 41t28.5 58l118 555h20l-118 -555q-8 -39 -34 -69t-58.5 -47.5t-62.5 -17.5zM362 730h20l-16 -77h-20z" />
    <glyph glyph-name="Jcircumflex" unicode="&#x134;" horiz-adv-x="458" 
d="M110 -11q-49 0 -81.5 12t-60.5 32l14 16q23 -18 55.5 -30t76.5 -12q60 0 100 24t66.5 68.5t45 107.5t35.5 142l77 360h20l-77 -360q-18 -85 -37.5 -151.5t-48 -113t-73 -71t-112.5 -24.5zM377 815l104 74h16l73 -74l-18 -12l-68 63l-94 -63z" />
    <glyph glyph-name="jcircumflex" unicode="&#x135;" horiz-adv-x="182" 
d="M-126 -170q-28 0 -51 7.5t-37 26.5l18 12q14 -16 34 -21t39 -5q26 0 54 15t49.5 41t28.5 58l118 555h20l-118 -555q-8 -39 -34 -69t-58.5 -47.5t-62.5 -17.5zM74 656l104 74h16l73 -74l-18 -12l-68 63l-94 -63z" />
    <glyph glyph-name="uni0136" unicode="&#x136;" horiz-adv-x="591" 
d="M184 709h20l-98 -460l526 461h29l-354 -310l216 -400h-24l-208 387l-191 -166l-47 -221h-20zM204 -167l22 58h-9l13 59h25l-12 -59l-25 -58h-14z" />
    <glyph glyph-name="uni0137" unicode="&#x137;" horiz-adv-x="521" 
d="M257 255q113 22 172.5 65.5t59.5 102.5q0 42 -28.5 65.5t-78.5 23.5q-46 0 -94 -24.5t-99 -75.5t-108 -131l18 44q45 69 92.5 114.5t96.5 68.5t97 23q59 0 92.5 -27.5t33.5 -77.5q0 -66 -61 -115.5t-165 -68.5l120 -242h-24zM172 730h20l-155 -730h-20zM153 -167l22 58
h-9l13 59h25l-12 -59l-25 -58h-14z" />
    <glyph glyph-name="kgreenlandic" unicode="&#x138;" horiz-adv-x="484" 
d="M127 519h20l-68 -323l403 321h27l-258 -206l153 -311h-24l-147 297l-160 -128l-36 -169h-20z" />
    <glyph glyph-name="Lacute" unicode="&#x139;" horiz-adv-x="552" 
d="M184 710h20l-147 -690h423l-4 -20h-443zM215 836l-13 12l76 73h33z" />
    <glyph glyph-name="lacute" unicode="&#x13a;" horiz-adv-x="224" 
d="M96 -5q-28 0 -44 16.5t-16 44.5q0 5 0.5 10t1.5 11l139 653h20l-139 -653q-1 -4 -1.5 -8t-0.5 -8q0 -47 52 -47q11 0 26 2.5t28 6.5l3 -16q-13 -4 -34 -8t-35 -4zM209 856l-13 12l76 73h33z" />
    <glyph glyph-name="uni013B" unicode="&#x13b;" horiz-adv-x="552" 
d="M184 710h20l-147 -690h423l-4 -20h-443zM206 -167l22 58h-9l13 59h25l-12 -59l-25 -58h-14z" />
    <glyph glyph-name="uni013C" unicode="&#x13c;" horiz-adv-x="224" 
d="M96 -5q-28 0 -44 16.5t-16 44.5q0 5 0.5 10t1.5 11l139 653h20l-139 -653q-1 -4 -1.5 -8t-0.5 -8q0 -47 52 -47q11 0 26 2.5t28 6.5l3 -16q-13 -4 -34 -8t-35 -4zM38 -167l22 58h-9l13 59h25l-12 -59l-25 -58h-14z" />
    <glyph glyph-name="Lcaron" unicode="&#x13d;" horiz-adv-x="552" 
d="M184 710h20l-147 -690h423l-4 -20h-443zM459 657l76 73h33l-96 -85z" />
    <glyph glyph-name="lcaron" unicode="&#x13e;" horiz-adv-x="224" 
d="M96 -5q-28 0 -44 16.5t-16 44.5q0 5 0.5 10t1.5 11l139 653h20l-139 -653q-1 -4 -1.5 -8t-0.5 -8q0 -47 52 -47q11 0 26 2.5t28 6.5l3 -16q-13 -4 -34 -8t-35 -4zM224 657l76 73h33l-96 -85z" />
    <glyph glyph-name="Ldot" unicode="&#x13f;" horiz-adv-x="552" 
d="M184 710h20l-147 -690h423l-4 -20h-443zM334 360l18 83h19l-17 -83h-20z" />
    <glyph glyph-name="ldot" unicode="&#x140;" horiz-adv-x="239" 
d="M96 -5q-28 0 -44 16.5t-16 44.5q0 5 0.5 10t1.5 11l139 653h20l-139 -653q-1 -4 -1.5 -8t-0.5 -8q0 -47 52 -47q11 0 26 2.5t28 6.5l3 -16q-13 -4 -34 -8t-35 -4zM195 250l18 83h19l-17 -83h-20z" />
    <glyph glyph-name="Lslash" unicode="&#x141;" horiz-adv-x="560" 
d="M18 236l332 285l10 -15l-332 -285zM184 710h20l-147 -690h423l-4 -20h-443z" />
    <glyph glyph-name="lslash" unicode="&#x142;" horiz-adv-x="238" 
d="M21 318l233 200l12 -14l-234 -200zM111 -5q-28 0 -44 16t-16 44q0 5 0.5 10.5t1.5 11.5l139 653h20l-139 -653q-1 -4 -1.5 -8t-0.5 -8q0 -47 52 -47q11 0 26 2.5t28 6.5l3 -16q-13 -4 -34 -8t-35 -4z" />
    <glyph glyph-name="Nacute" unicode="&#x143;" horiz-adv-x="743" 
d="M184 710h15l370 -681l144 680h20l-151 -709h-22l-364 671l-143 -671h-20zM491 833l-13 12l76 73h33z" />
    <glyph glyph-name="nacute" unicode="&#x144;" horiz-adv-x="540" 
d="M127 519h20l-28 -134q29 42 70 74t87 50t90 18q37 0 61.5 -13.5t36.5 -41.5t12 -71q0 -24 -3.5 -52t-10.5 -60l-61 -289h-20l61 289q7 32 10 58.5t3 48.5q0 57 -23 84t-70 27t-96.5 -23.5t-91.5 -64t-67 -91.5l-70 -328h-20zM350 645l-13 12l76 73h33z" />
    <glyph glyph-name="uni0145" unicode="&#x145;" horiz-adv-x="743" 
d="M184 710h15l370 -681l144 680h20l-151 -709h-22l-364 671l-143 -671h-20zM268 -167l22 58h-9l13 59h25l-12 -59l-25 -58h-14z" />
    <glyph glyph-name="uni0146" unicode="&#x146;" horiz-adv-x="540" 
d="M127 519h20l-28 -134q29 42 70 74t87 50t90 18q37 0 61.5 -13.5t36.5 -41.5t12 -71q0 -24 -3.5 -52t-10.5 -60l-61 -289h-20l61 289q7 32 10 58.5t3 48.5q0 57 -23 84t-70 27t-96.5 -23.5t-91.5 -64t-67 -91.5l-70 -328h-20zM168 -167l22 58h-9l13 59h25l-12 -59l-25 -58
h-14z" />
    <glyph glyph-name="Ncaron" unicode="&#x147;" horiz-adv-x="743" 
d="M184 710h15l370 -681l144 680h20l-151 -709h-22l-364 671l-143 -671h-20zM408 906l18 12l68 -63l94 63l13 -12l-104 -74h-16z" />
    <glyph glyph-name="ncaron" unicode="&#x148;" horiz-adv-x="540" 
d="M127 519h20l-28 -134q29 42 70 74t87 50t90 18q37 0 61.5 -13.5t36.5 -41.5t12 -71q0 -24 -3.5 -52t-10.5 -60l-61 -289h-20l61 289q7 32 10 58.5t3 48.5q0 57 -23 84t-70 27t-96.5 -23.5t-91.5 -64t-67 -91.5l-70 -328h-20zM267 718l18 12l68 -63l94 63l13 -12l-104 -74
h-16z" />
    <glyph glyph-name="napostrophe" unicode="&#x149;" horiz-adv-x="540" 
d="M-50 657l49 47l8 26h52l-96 -85zM127 519h20l-28 -134q29 42 70 74t87 50t90 18q37 0 61.5 -13.5t36.5 -41.5t12 -71q0 -24 -3.5 -52t-10.5 -60l-61 -289h-20l61 289q7 32 10 58.5t3 48.5q0 57 -23 84t-70 27t-96.5 -23.5t-91.5 -64t-67 -91.5l-70 -328h-20z" />
    <glyph glyph-name="Eng" unicode="&#x14a;" horiz-adv-x="744" 
d="M419 -170q-28 0 -50.5 7.5t-37.5 26.5l18 12q14 -16 34 -21t40 -5q26 0 54 15t49.5 41t28.5 58l7 32l-366 675l-143 -671h-20l151 710h15l369 -681l145 680h20l-158 -745q-8 -39 -34 -69t-59 -47.5t-63 -17.5z" />
    <glyph glyph-name="eng" unicode="&#x14b;" horiz-adv-x="540" 
d="M238 -170q-28 0 -51 7.5t-37 26.5l18 12q14 -16 33.5 -21t39.5 -5q26 0 54 15t49.5 41t28.5 58l69 325q7 32 10 58.5t3 48.5q0 57 -23 84t-70 27t-96.5 -23.5t-91.5 -64t-67 -91.5l-70 -328h-20l110 519h20l-28 -134q29 42 70 74t87 50t90 18q37 0 61.5 -13.5t36.5 -41.5
t12 -71q0 -24 -3.5 -52t-10.5 -60l-69 -325q-8 -39 -34 -69t-58.5 -47.5t-62.5 -17.5z" />
    <glyph glyph-name="Omacron" unicode="&#x14c;" horiz-adv-x="726" 
d="M305 -5q-67 0 -115 24t-78.5 65t-45 92.5t-14.5 107.5q0 69 20 133t56.5 118.5t85.5 94.5t107.5 62.5t121.5 22.5q67 0 115 -24.5t79 -65.5t45.5 -93t14.5 -108q0 -69 -20 -132.5t-56.5 -117.5t-86 -94t-107.5 -62.5t-122 -22.5zM308 15q78 0 145.5 34.5t117.5 92.5
t78 131t28 151q0 71 -24.5 133t-76.5 100t-135 38q-78 0 -145 -34t-117.5 -92.5t-78.5 -132t-28 -151.5q0 -71 24.5 -132.5t76.5 -99.5t135 -38zM363 874l4 20h266l-4 -20h-266z" />
    <glyph glyph-name="omacron" unicode="&#x14d;" horiz-adv-x="561" 
d="M219 -10q-63 0 -105 29t-63 78t-21 108q0 68 24.5 126.5t66.5 102.5t95 68.5t109 24.5q63 0 104.5 -29.5t62.5 -78.5t21 -109q0 -67 -24 -125t-65.5 -102t-94.5 -68.5t-110 -24.5zM222 10q52 0 100.5 22.5t87 63t61 94.5t22.5 116q0 55 -19 100.5t-57 73t-96 27.5
q-52 0 -100.5 -23t-87 -64t-61 -95t-22.5 -117q0 -55 19 -100t57.5 -71.5t95.5 -26.5zM229 686l4 20h266l-4 -20h-266z" />
    <glyph glyph-name="Obreve" unicode="&#x14e;" horiz-adv-x="726" 
d="M305 -5q-67 0 -115 24t-78.5 65t-45 92.5t-14.5 107.5q0 69 20 133t56.5 118.5t85.5 94.5t107.5 62.5t121.5 22.5q67 0 115 -24.5t79 -65.5t45.5 -93t14.5 -108q0 -69 -20 -132.5t-56.5 -117.5t-86 -94t-107.5 -62.5t-122 -22.5zM308 15q78 0 145.5 34.5t117.5 92.5
t78 131t28 151q0 71 -24.5 133t-76.5 100t-135 38q-78 0 -145 -34t-117.5 -92.5t-78.5 -132t-28 -151.5q0 -71 24.5 -132.5t76.5 -99.5t135 -38zM493 858q20 0 39.5 17.5t26.5 42.5h18q-4 -20 -18 -38t-32 -28.5t-37 -10.5q-25 0 -41 18t-16 44q0 4 0.5 7.5t1.5 7.5h19
q-1 -3 -1 -6v-5q0 -19 11.5 -34t28.5 -15z" />
    <glyph glyph-name="obreve" unicode="&#x14f;" horiz-adv-x="561" 
d="M219 -10q-63 0 -105 29t-63 78t-21 108q0 68 24.5 126.5t66.5 102.5t95 68.5t109 24.5q63 0 104.5 -29.5t62.5 -78.5t21 -109q0 -67 -24 -125t-65.5 -102t-94.5 -68.5t-110 -24.5zM222 10q52 0 100.5 22.5t87 63t61 94.5t22.5 116q0 55 -19 100.5t-57 73t-96 27.5
q-52 0 -100.5 -23t-87 -64t-61 -95t-22.5 -117q0 -55 19 -100t57.5 -71.5t95.5 -26.5zM359 670q20 0 39.5 17.5t26.5 42.5h18q-4 -20 -18 -38t-32 -28.5t-37 -10.5q-25 0 -41 18t-16 44q0 4 0.5 7.5t1.5 7.5h19q-1 -3 -1 -6v-5q0 -19 11.5 -34t28.5 -15z" />
    <glyph glyph-name="Ohungarumlaut" unicode="&#x150;" horiz-adv-x="726" 
d="M305 -5q-67 0 -115 24t-78.5 65t-45 92.5t-14.5 107.5q0 69 20 133t56.5 118.5t85.5 94.5t107.5 62.5t121.5 22.5q67 0 115 -24.5t79 -65.5t45.5 -93t14.5 -108q0 -69 -20 -132.5t-56.5 -117.5t-86 -94t-107.5 -62.5t-122 -22.5zM308 15q78 0 145.5 34.5t117.5 92.5
t78 131t28 151q0 71 -24.5 133t-76.5 100t-135 38q-78 0 -145 -34t-117.5 -92.5t-78.5 -132t-28 -151.5q0 -71 24.5 -132.5t76.5 -99.5t135 -38zM423 833l-13 12l76 73h33zM519 833l-13 12l76 73h33z" />
    <glyph glyph-name="ohungarumlaut" unicode="&#x151;" horiz-adv-x="561" 
d="M219 -10q-63 0 -105 29t-63 78t-21 108q0 68 24.5 126.5t66.5 102.5t95 68.5t109 24.5q63 0 104.5 -29.5t62.5 -78.5t21 -109q0 -67 -24 -125t-65.5 -102t-94.5 -68.5t-110 -24.5zM222 10q52 0 100.5 22.5t87 63t61 94.5t22.5 116q0 55 -19 100.5t-57 73t-96 27.5
q-52 0 -100.5 -23t-87 -64t-61 -95t-22.5 -117q0 -55 19 -100t57.5 -71.5t95.5 -26.5zM289 645l-13 12l76 73h33zM385 645l-13 12l76 73h33z" />
    <glyph glyph-name="OE" unicode="&#x152;" horiz-adv-x="1149" 
d="M301 -5q-60 0 -106 24t-78 65t-48.5 94t-16.5 110q0 65 22 127.5t60.5 116.5t89 95t109 64.5t119.5 23.5q72 0 123.5 -32.5t81.5 -87t37 -120.5l50 235h435l-5 -20h-414l-67 -317h363l-5 -20h-363l-70 -333h422l-4 -20h-443l50 234q-36 -67 -90 -121t-119 -86t-133 -32z
M303 15q60 0 115.5 23t102.5 63.5t82 92.5t54.5 109.5t19.5 115.5q0 74 -28 136.5t-79 101t-122 38.5q-60 0 -115.5 -23t-103 -63.5t-83 -92.5t-55 -110t-19.5 -116q0 -73 27.5 -136t79.5 -101t124 -38z" />
    <glyph glyph-name="oe" unicode="&#x153;" horiz-adv-x="1000" 
d="M213 -10q-55 0 -96 28.5t-64 77t-23 108.5q0 65 25.5 123t68.5 103t96.5 71t110.5 26q52 0 92 -24.5t63.5 -68t24.5 -102.5q39 90 111 142.5t156 52.5q58 0 99 -27t62.5 -76.5t21.5 -118.5q0 -31 -2 -41.5t-4 -15.5h-450l-2 -20t-1 -20q0 -56 22.5 -101t63.5 -71t94 -26
q59 0 115 30.5t85 78.5l18 -5q-22 -36 -58.5 -64t-79.5 -44t-86 -16q-53 0 -96 25t-69 69.5t-30 100.5q-27 -58 -70 -102t-94 -68.5t-104 -24.5zM218 10q51 0 100 23.5t88.5 65t63 95t23.5 113.5q0 56 -21 101.5t-58.5 72t-87.5 26.5q-51 0 -100 -24t-89 -66t-63.5 -96
t-23.5 -114q0 -55 21 -100t59 -71t88 -26zM939 268q2 12 3 24t1 24q0 85 -46 138t-123 53q-58 0 -112 -31t-94.5 -85t-58.5 -123h430z" />
    <glyph glyph-name="Racute" unicode="&#x154;" horiz-adv-x="616" 
d="M33 0l151 710h275q47 0 80.5 -25.5t51 -66t17.5 -85.5q0 -46 -17.5 -89.5t-48.5 -79.5t-71 -59t-85 -26l111 -279h-24l-111 279h-250l-59 -279h-20zM378 299q44 0 82 20.5t67 54.5t45 75t16 81q0 43 -16.5 79t-46.5 58.5t-71 22.5h-254l-83 -391h261zM420 836l-13 12
l76 73h33z" />
    <glyph glyph-name="racute" unicode="&#x155;" horiz-adv-x="317" 
d="M127 519h20l-28 -134q41 61 94 94.5t107 38.5q5 1 10 1h9l-4 -20q-70 -3 -131 -48.5t-97 -122.5l-70 -328h-20zM215 645l-13 12l76 73h33z" />
    <glyph glyph-name="uni0156" unicode="&#x156;" horiz-adv-x="616" 
d="M33 0l151 710h275q47 0 80.5 -25.5t51 -66t17.5 -85.5q0 -46 -17.5 -89.5t-48.5 -79.5t-71 -59t-85 -26l111 -279h-24l-111 279h-250l-59 -279h-20zM378 299q44 0 82 20.5t67 54.5t45 75t16 81q0 43 -16.5 79t-46.5 58.5t-71 22.5h-254l-83 -391h261zM198 -167l22 58h-9
l13 59h25l-12 -59l-25 -58h-14z" />
    <glyph glyph-name="uni0157" unicode="&#x157;" horiz-adv-x="317" 
d="M127 519h20l-28 -134q41 61 94 94.5t107 38.5q5 1 10 1h9l-4 -20q-70 -3 -131 -48.5t-97 -122.5l-70 -328h-20zM-18 -167l22 58h-9l13 59h25l-12 -59l-25 -58h-14z" />
    <glyph glyph-name="Rcaron" unicode="&#x158;" horiz-adv-x="616" 
d="M33 0l151 710h275q47 0 80.5 -25.5t51 -66t17.5 -85.5q0 -46 -17.5 -89.5t-48.5 -79.5t-71 -59t-85 -26l111 -279h-24l-111 279h-250l-59 -279h-20zM378 299q44 0 82 20.5t67 54.5t45 75t16 81q0 43 -16.5 79t-46.5 58.5t-71 22.5h-254l-83 -391h261zM337 909l18 12
l68 -63l94 63l13 -12l-104 -74h-16z" />
    <glyph glyph-name="rcaron" unicode="&#x159;" horiz-adv-x="317" 
d="M127 519h20l-28 -134q41 61 94 94.5t107 38.5q5 1 10 1h9l-4 -20q-70 -3 -131 -48.5t-97 -122.5l-70 -328h-20zM132 718l18 12l68 -63l94 63l13 -12l-104 -74h-16z" />
    <glyph glyph-name="Sacute" unicode="&#x15a;" horiz-adv-x="579" 
d="M244 -5q-84 0 -140.5 26.5t-104.5 83.5l16 13q21 -25 44.5 -44.5t51.5 -33t61.5 -20.5t75.5 -7q75 0 131 22t87 64t31 100q0 47 -21 73t-63.5 42t-107.5 32q-64 16 -108.5 30.5t-67.5 41t-23 78.5q0 49 19.5 89t55.5 69t86 45t111 16q45 0 80.5 -9t63 -28t48.5 -48
l-16 -14q-16 22 -34 37.5t-39.5 25t-46 13.5t-54.5 4q-82 0 -138.5 -27t-85.5 -72t-29 -99q0 -43 19.5 -66t59.5 -37t103 -30q71 -18 117.5 -35.5t69 -46.5t22.5 -82q0 -52 -20.5 -91t-57.5 -64.5t-87 -38t-109 -12.5zM414 855l-13 12l76 73h33z" />
    <glyph glyph-name="sacute" unicode="&#x15b;" horiz-adv-x="450" 
d="M159 -10q-56 0 -99.5 20.5t-71.5 63.5l17 13q30 -39 68 -58t90 -19q55 0 98.5 18t69 50.5t25.5 76.5t-39 64t-109 38q-43 11 -73.5 22t-46.5 28.5t-16 48.5q0 58 29 96t77 56.5t103 18.5q60 0 97.5 -21.5t47.5 -53.5l-19 -8q-11 31 -49 47t-85 16q-41 0 -83 -15
t-69.5 -46.5t-27.5 -83.5q0 -38 30.5 -53.5t89.5 -31.5q50 -13 86.5 -26t57 -33.5t20.5 -55.5q0 -56 -28.5 -94.5t-77.5 -58t-112 -19.5zM300 645l-13 12l76 73h33z" />
    <glyph glyph-name="Scircumflex" unicode="&#x15c;" horiz-adv-x="579" 
d="M244 -5q-84 0 -140.5 26.5t-104.5 83.5l16 13q21 -25 44.5 -44.5t51.5 -33t61.5 -20.5t75.5 -7q75 0 131 22t87 64t31 100q0 47 -21 73t-63.5 42t-107.5 32q-64 16 -108.5 30.5t-67.5 41t-23 78.5q0 49 19.5 89t55.5 69t86 45t111 16q45 0 80.5 -9t63 -28t48.5 -48
l-16 -14q-16 22 -34 37.5t-39.5 25t-46 13.5t-54.5 4q-82 0 -138.5 -27t-85.5 -72t-29 -99q0 -43 19.5 -66t59.5 -37t103 -30q71 -18 117.5 -35.5t69 -46.5t22.5 -82q0 -52 -20.5 -91t-57.5 -64.5t-87 -38t-109 -12.5zM321 837l104 74h16l73 -74l-18 -12l-68 63l-94 -63z
" />
    <glyph glyph-name="scircumflex" unicode="&#x15d;" horiz-adv-x="450" 
d="M159 -10q-56 0 -99.5 20.5t-71.5 63.5l17 13q30 -39 68 -58t90 -19q55 0 98.5 18t69 50.5t25.5 76.5t-39 64t-109 38q-43 11 -73.5 22t-46.5 28.5t-16 48.5q0 58 29 96t77 56.5t103 18.5q60 0 97.5 -21.5t47.5 -53.5l-19 -8q-11 31 -49 47t-85 16q-41 0 -83 -15
t-69.5 -46.5t-27.5 -83.5q0 -38 30.5 -53.5t89.5 -31.5q50 -13 86.5 -26t57 -33.5t20.5 -55.5q0 -56 -28.5 -94.5t-77.5 -58t-112 -19.5zM207 627l104 74h16l73 -74l-18 -12l-68 63l-94 -63z" />
    <glyph glyph-name="Scedilla" unicode="&#x15e;" horiz-adv-x="579" 
d="M244 -5q-84 0 -140.5 26.5t-104.5 83.5l16 13q21 -25 44.5 -44.5t51.5 -33t61.5 -20.5t75.5 -7q75 0 131 22t87 64t31 100q0 47 -21 73t-63.5 42t-107.5 32q-64 16 -108.5 30.5t-67.5 41t-23 78.5q0 49 19.5 89t55.5 69t86 45t111 16q45 0 80.5 -9t63 -28t48.5 -48
l-16 -14q-16 22 -34 37.5t-39.5 25t-46 13.5t-54.5 4q-82 0 -138.5 -27t-85.5 -72t-29 -99q0 -43 19.5 -66t59.5 -37t103 -30q71 -18 117.5 -35.5t69 -46.5t22.5 -82q0 -52 -20.5 -91t-57.5 -64.5t-87 -38t-109 -12.5zM195 -164q-22 0 -46.5 6t-44.5 19l11 15
q20 -10 37.5 -16t43.5 -6q39 0 62 21t23 49q0 23 -13.5 41t-38.5 35l20 9q23 -18 36.5 -37t13.5 -45q0 -31 -14 -51.5t-37.5 -30t-52.5 -9.5z" />
    <glyph glyph-name="scedilla" unicode="&#x15f;" horiz-adv-x="450" 
d="M159 -10q-56 0 -99.5 20.5t-71.5 63.5l17 13q30 -39 68 -58t90 -19q55 0 98.5 18t69 50.5t25.5 76.5t-39 64t-109 38q-43 11 -73.5 22t-46.5 28.5t-16 48.5q0 58 29 96t77 56.5t103 18.5q60 0 97.5 -21.5t47.5 -53.5l-19 -8q-11 31 -49 47t-85 16q-41 0 -83 -15
t-69.5 -46.5t-27.5 -83.5q0 -38 30.5 -53.5t89.5 -31.5q50 -13 86.5 -26t57 -33.5t20.5 -55.5q0 -56 -28.5 -94.5t-77.5 -58t-112 -19.5zM128 -164q-22 0 -46.5 6t-44.5 19l11 15q20 -10 37.5 -16t43.5 -6q39 0 62 21t23 49q0 23 -13.5 41t-38.5 35l20 9q23 -18 36.5 -37
t13.5 -45q0 -31 -14 -51.5t-37.5 -30t-52.5 -9.5z" />
    <glyph glyph-name="Scaron" unicode="&#x160;" horiz-adv-x="579" 
d="M244 -5q-84 0 -140.5 26.5t-104.5 83.5l16 13q21 -25 44.5 -44.5t51.5 -33t61.5 -20.5t75.5 -7q75 0 131 22t87 64t31 100q0 47 -21 73t-63.5 42t-107.5 32q-64 16 -108.5 30.5t-67.5 41t-23 78.5q0 49 19.5 89t55.5 69t86 45t111 16q45 0 80.5 -9t63 -28t48.5 -48
l-16 -14q-16 22 -34 37.5t-39.5 25t-46 13.5t-54.5 4q-82 0 -138.5 -27t-85.5 -72t-29 -99q0 -43 19.5 -66t59.5 -37t103 -30q71 -18 117.5 -35.5t69 -46.5t22.5 -82q0 -52 -20.5 -91t-57.5 -64.5t-87 -38t-109 -12.5zM331 928l18 12l68 -63l94 63l13 -12l-104 -74h-16z" />
    <glyph glyph-name="scaron" unicode="&#x161;" horiz-adv-x="450" 
d="M159 -10q-56 0 -99.5 20.5t-71.5 63.5l17 13q30 -39 68 -58t90 -19q55 0 98.5 18t69 50.5t25.5 76.5t-39 64t-109 38q-43 11 -73.5 22t-46.5 28.5t-16 48.5q0 58 29 96t77 56.5t103 18.5q60 0 97.5 -21.5t47.5 -53.5l-19 -8q-11 31 -49 47t-85 16q-41 0 -83 -15
t-69.5 -46.5t-27.5 -83.5q0 -38 30.5 -53.5t89.5 -31.5q50 -13 86.5 -26t57 -33.5t20.5 -55.5q0 -56 -28.5 -94.5t-77.5 -58t-112 -19.5zM217 718l18 12l68 -63l94 63l13 -12l-104 -74h-16z" />
    <glyph glyph-name="uni0162" unicode="&#x162;" horiz-adv-x="574" 
d="M356 690h-258l4 20h536l-4 -20h-258l-147 -690h-20zM175 -164q-22 0 -46.5 6t-44.5 19l11 15q20 -10 37.5 -16t43.5 -6q39 0 62 21t23 49q0 23 -13.5 41t-38.5 35l20 9q23 -18 36.5 -37t13.5 -45q0 -31 -14 -51.5t-37.5 -30t-52.5 -9.5z" />
    <glyph glyph-name="uni0163" unicode="&#x163;" horiz-adv-x="281" 
d="M48 58q0 4 0.5 8.5t1.5 8.5l90 424h-71l4 20h72l38 181h20l-38 -181h118l-4 -20h-119l-80 -373q-6 -28 -8.5 -40.5t-2.5 -19.5q0 -25 16.5 -38t38.5 -13t40.5 6t31 12t13.5 7l7 -16l-13.5 -7.5t-35.5 -14.5t-48 -7q-31 0 -51 17.5t-20 45.5zM74 -164q-22 0 -46.5 6
t-44.5 19l11 15q20 -10 37.5 -16t43.5 -6q39 0 62 21t23 49q0 23 -13.5 41t-38.5 35l20 9q23 -18 36.5 -37t13.5 -45q0 -31 -14 -51.5t-37.5 -30t-52.5 -9.5z" />
    <glyph glyph-name="Tcaron" unicode="&#x164;" horiz-adv-x="574" 
d="M356 690h-258l4 20h536l-4 -20h-258l-147 -690h-20zM308 906l18 12l68 -63l94 63l13 -12l-104 -74h-16z" />
    <glyph glyph-name="tcaron" unicode="&#x165;" horiz-adv-x="281" 
d="M48 58q0 4 0.5 8.5t1.5 8.5l90 424h-71l4 20h72l38 181h20l-38 -181h118l-4 -20h-119l-80 -373q-6 -28 -8.5 -40.5t-2.5 -19.5q0 -25 16.5 -38t38.5 -13t40.5 6t31 12t13.5 7l7 -16l-13.5 -7.5t-35.5 -14.5t-48 -7q-31 0 -51 17.5t-20 45.5zM260 657l76 73h33l-96 -85z
" />
    <glyph glyph-name="Tbar" unicode="&#x166;" horiz-adv-x="616" 
d="M92 424h479l-4 -20h-479zM378 690h-258l4 20h537l-5 -20h-258l-146 -690h-20z" />
    <glyph glyph-name="tbar" unicode="&#x167;" horiz-adv-x="283" 
d="M30 339h210l-4 -20h-210zM48 58q0 4 0.5 8.5t1.5 8.5l90 424h-71l4 20h72l38 181h20l-38 -181h118l-4 -20h-119l-80 -373q-6 -28 -8.5 -40.5t-2.5 -19.5q0 -25 16.5 -38t38.5 -13t40.5 6t31 12t13.5 7l7 -16l-13.5 -7.5t-35.5 -14.5t-48 -7q-31 0 -51 17.5t-20 45.5z" />
    <glyph glyph-name="Utilde" unicode="&#x168;" horiz-adv-x="723" 
d="M298 -5q-81 0 -128 31.5t-67 83.5t-20 115q0 32 4 64.5t11 65.5l75 355h20l-75 -355q-7 -32 -11 -63.5t-4 -63.5q0 -59 17.5 -107.5t60.5 -77t117 -28.5q76 0 133 29.5t96.5 79t64.5 110t38 121.5l75 355h20l-75 -355q-15 -72 -43 -137t-70.5 -115t-101.5 -79t-137 -29z
M531 851q-28 0 -45.5 9.5t-31.5 19t-34 9.5t-33 -10.5t-19 -22.5t-7 -15h-19q0 2 4.5 12.5t14 23t25.5 22t40 9.5q18 0 31 -5.5t24.5 -13.5t24.5 -13.5t31 -5.5q26 0 40 11t20 23t6 14h19q-1 -3 -5.5 -14t-15 -23t-27.5 -21t-43 -9z" />
    <glyph glyph-name="utilde" unicode="&#x169;" horiz-adv-x="551" 
d="M167 -10q-120 0 -120 139q0 22 3 46.5t9 52.5l62 291h20l-62 -291q-12 -55 -12 -97q0 -121 105 -121q48 0 96 23t89.5 63.5t66.5 92.5l70 330h20l-96 -452q-2 -11 -4.5 -21t-2.5 -12q0 -14 13 -14l-5 -20q-4 0 -7 0.5t-5 1.5q-7 3 -11 10t-4 17q0 2 1 7.5t5 26.5t14 69
q-46 -65 -112 -103.5t-133 -38.5zM404 663q-28 0 -45.5 9.5t-31.5 19t-34 9.5t-33 -10.5t-19 -22.5t-7 -15h-19q0 2 4.5 12.5t14 23t25.5 22t40 9.5q18 0 31 -5.5t24.5 -13.5t24.5 -13.5t31 -5.5q26 0 40 11t20 23t6 14h19q-1 -3 -5.5 -14t-15 -23t-27.5 -21t-43 -9z" />
    <glyph glyph-name="Umacron" unicode="&#x16a;" horiz-adv-x="723" 
d="M298 -5q-81 0 -128 31.5t-67 83.5t-20 115q0 32 4 64.5t11 65.5l75 355h20l-75 -355q-7 -32 -11 -63.5t-4 -63.5q0 -59 17.5 -107.5t60.5 -77t117 -28.5q76 0 133 29.5t96.5 79t64.5 110t38 121.5l75 355h20l-75 -355q-15 -72 -43 -137t-70.5 -115t-101.5 -79t-137 -29z
M348 874l4 20h266l-4 -20h-266z" />
    <glyph glyph-name="umacron" unicode="&#x16b;" horiz-adv-x="551" 
d="M167 -10q-120 0 -120 139q0 22 3 46.5t9 52.5l62 291h20l-62 -291q-12 -55 -12 -97q0 -121 105 -121q48 0 96 23t89.5 63.5t66.5 92.5l70 330h20l-96 -452q-2 -11 -4.5 -21t-2.5 -12q0 -14 13 -14l-5 -20q-4 0 -7 0.5t-5 1.5q-7 3 -11 10t-4 17q0 2 1 7.5t5 26.5t14 69
q-46 -65 -112 -103.5t-133 -38.5zM234 686l4 20h266l-4 -20h-266z" />
    <glyph glyph-name="Ubreve" unicode="&#x16c;" horiz-adv-x="723" 
d="M298 -5q-81 0 -128 31.5t-67 83.5t-20 115q0 32 4 64.5t11 65.5l75 355h20l-75 -355q-7 -32 -11 -63.5t-4 -63.5q0 -59 17.5 -107.5t60.5 -77t117 -28.5q76 0 133 29.5t96.5 79t64.5 110t38 121.5l75 355h20l-75 -355q-15 -72 -43 -137t-70.5 -115t-101.5 -79t-137 -29z
M478 858q20 0 39.5 17.5t26.5 42.5h18q-4 -20 -18 -38t-32 -28.5t-37 -10.5q-25 0 -41 18t-16 44q0 4 0.5 7.5t1.5 7.5h19q-1 -3 -1 -6v-5q0 -19 11.5 -34t28.5 -15z" />
    <glyph glyph-name="ubreve" unicode="&#x16d;" horiz-adv-x="551" 
d="M167 -10q-120 0 -120 139q0 22 3 46.5t9 52.5l62 291h20l-62 -291q-12 -55 -12 -97q0 -121 105 -121q48 0 96 23t89.5 63.5t66.5 92.5l70 330h20l-96 -452q-2 -11 -4.5 -21t-2.5 -12q0 -14 13 -14l-5 -20q-4 0 -7 0.5t-5 1.5q-7 3 -11 10t-4 17q0 2 1 7.5t5 26.5t14 69
q-46 -65 -112 -103.5t-133 -38.5zM364 670q20 0 39.5 17.5t26.5 42.5h18q-4 -20 -18 -38t-32 -28.5t-37 -10.5q-25 0 -41 18t-16 44q0 4 0.5 7.5t1.5 7.5h19q-1 -3 -1 -6v-5q0 -19 11.5 -34t28.5 -15z" />
    <glyph glyph-name="Uring" unicode="&#x16e;" horiz-adv-x="723" 
d="M298 -5q-81 0 -128 31.5t-67 83.5t-20 115q0 32 4 64.5t11 65.5l75 355h20l-75 -355q-7 -32 -11 -63.5t-4 -63.5q0 -59 17.5 -107.5t60.5 -77t117 -28.5q76 0 133 29.5t96.5 79t64.5 110t38 121.5l75 355h20l-75 -355q-15 -72 -43 -137t-70.5 -115t-101.5 -79t-137 -29z
M422 850q0 28 21 48t47 20q20 0 31.5 -13t11.5 -33q0 -28 -21 -48t-47 -20q-19 0 -31 13.5t-12 32.5zM486 902q-18 0 -33 -13.5t-15 -35.5q0 -14 8.5 -23.5t22.5 -9.5q16 0 32.5 14t16.5 35q0 15 -9 24t-23 9z" />
    <glyph glyph-name="uring" unicode="&#x16f;" horiz-adv-x="551" 
d="M167 -10q-120 0 -120 139q0 22 3 46.5t9 52.5l62 291h20l-62 -291q-12 -55 -12 -97q0 -121 105 -121q48 0 96 23t89.5 63.5t66.5 92.5l70 330h20l-96 -452q-2 -11 -4.5 -21t-2.5 -12q0 -14 13 -14l-5 -20q-4 0 -7 0.5t-5 1.5q-7 3 -11 10t-4 17q0 2 1 7.5t5 26.5t14 69
q-46 -65 -112 -103.5t-133 -38.5zM308 662q0 28 21 48t47 20q20 0 31.5 -13t11.5 -33q0 -28 -21 -48t-47 -20q-19 0 -31 13.5t-12 32.5zM372 714q-18 0 -33 -13.5t-15 -35.5q0 -14 8.5 -23.5t22.5 -9.5q16 0 32.5 14t16.5 35q0 15 -9 24t-23 9z" />
    <glyph glyph-name="Uhungarumlaut" unicode="&#x170;" horiz-adv-x="723" 
d="M298 -5q-81 0 -128 31.5t-67 83.5t-20 115q0 32 4 64.5t11 65.5l75 355h20l-75 -355q-7 -32 -11 -63.5t-4 -63.5q0 -59 17.5 -107.5t60.5 -77t117 -28.5q76 0 133 29.5t96.5 79t64.5 110t38 121.5l75 355h20l-75 -355q-15 -72 -43 -137t-70.5 -115t-101.5 -79t-137 -29z
M408 833l-13 12l76 73h33zM504 833l-13 12l76 73h33z" />
    <glyph glyph-name="uhungarumlaut" unicode="&#x171;" horiz-adv-x="551" 
d="M167 -10q-120 0 -120 139q0 22 3 46.5t9 52.5l62 291h20l-62 -291q-12 -55 -12 -97q0 -121 105 -121q48 0 96 23t89.5 63.5t66.5 92.5l70 330h20l-96 -452q-2 -11 -4.5 -21t-2.5 -12q0 -14 13 -14l-5 -20q-4 0 -7 0.5t-5 1.5q-7 3 -11 10t-4 17q0 2 1 7.5t5 26.5t14 69
q-46 -65 -112 -103.5t-133 -38.5zM294 645l-13 12l76 73h33zM390 645l-13 12l76 73h33z" />
    <glyph glyph-name="Uogonek" unicode="&#x172;" horiz-adv-x="723" 
d="M298 -5q-81 0 -128 31.5t-67 83.5t-20 115q0 32 4 64.5t11 65.5l75 355h20l-75 -355q-7 -32 -11 -63.5t-4 -63.5q0 -59 17.5 -107.5t60.5 -77t117 -28.5q76 0 133 29.5t96.5 79t64.5 110t38 121.5l75 355h20l-75 -355q-15 -72 -43 -137t-70.5 -115t-101.5 -79t-137 -29z
M236 -113q0 30 22 59t64 66h4l5 -12q-44 -37 -61 -60.5t-17 -45.5q0 -14 10 -23.5t34 -17.5l-13 -17q-25 7 -36.5 20t-11.5 31z" />
    <glyph glyph-name="uogonek" unicode="&#x173;" horiz-adv-x="551" 
d="M167 -10q-120 0 -120 139q0 22 3 46.5t9 52.5l62 291h20l-62 -291q-12 -55 -12 -97q0 -121 105 -121q48 0 96 23t89.5 63.5t66.5 92.5l70 330h20l-96 -452q-2 -11 -4.5 -21t-2.5 -12q0 -14 13 -14l-5 -20q-4 0 -7 0.5t-5 1.5q-7 3 -11 10t-4 17q0 2 1 7.5t5 26.5t14 69
q-46 -65 -112 -103.5t-133 -38.5zM324 -113q0 30 22 59t64 66h4l5 -12q-44 -37 -61 -60.5t-17 -45.5q0 -14 10 -23.5t34 -17.5l-13 -17q-25 7 -36.5 20t-11.5 31z" />
    <glyph glyph-name="Wcircumflex" unicode="&#x174;" horiz-adv-x="986" 
d="M101 710h22l137 -685l242 389l-59 290h22l52 -266l167 266h22l-183 -290l79 -389l427 685h22l-444 -710h-22l-77 389l-243 -389h-22zM504 815l104 74h16l73 -74l-18 -12l-68 63l-94 -63z" />
    <glyph glyph-name="wcircumflex" unicode="&#x175;" horiz-adv-x="723" 
d="M61 519h21l88 -491q58 62 105 134t84 144l-38 213h21l32 -182q23 48 41.5 94t32.5 88h20q-17 -53 -39 -107.5t-49 -108.5l50 -275q41 44 77 93.5t66 101t55.5 102.5t45 100.5t34.5 93.5h20q-42 -130 -112.5 -263t-183.5 -256h-18l-49 273q-37 -70 -85 -139t-108 -134h-18
zM340 627l104 74h16l73 -74l-18 -12l-68 63l-94 -63z" />
    <glyph glyph-name="Ycircumflex" unicode="&#x176;" horiz-adv-x="594" 
d="M277 277l-180 433h23l172 -412l348 412h23l-366 -435l-59 -275h-20zM308 815l104 74h16l73 -74l-18 -12l-68 63l-94 -63z" />
    <glyph glyph-name="ycircumflex" unicode="&#x177;" horiz-adv-x="446" 
d="M-37 -207q41 8 66.5 24t48 44.5t52.5 75.5l41 63l-119 519h22l112 -494l58 92q47 75 79.5 130.5t55 100t38 85.5t28.5 86h21q-13 -48 -28.5 -90t-38 -87t-56.5 -102.5t-84 -136.5l-82 -129q-36 -56 -62 -92.5t-48.5 -58t-46.5 -32t-55 -15.5zM221 627l104 74h16l73 -74
l-18 -12l-68 63l-94 -63z" />
    <glyph glyph-name="Ydieresis" unicode="&#x178;" horiz-adv-x="594" 
d="M277 277l-180 433h23l172 -412l348 412h23l-366 -435l-59 -275h-20zM342 841l16 77h20l-16 -77h-20zM453 841l16 77h20l-16 -77h-20z" />
    <glyph glyph-name="Zacute" unicode="&#x179;" horiz-adv-x="587" 
d="M-36 20l656 670h-509l5 20h534l-5 -20l-656 -670h510l-4 -20h-535zM412 836l-13 12l76 73h33z" />
    <glyph glyph-name="zacute" unicode="&#x17a;" horiz-adv-x="457" 
d="M-32 20l477 479h-370l4 20h395l-4 -20l-476 -479h371l-5 -20h-396zM306 645l-13 12l76 73h33z" />
    <glyph glyph-name="Zdotaccent" unicode="&#x17b;" horiz-adv-x="587" 
d="M-36 20l656 670h-509l5 20h534l-5 -20l-656 -670h510l-4 -20h-535zM409 844l16 77h20l-16 -77h-20z" />
    <glyph glyph-name="zdotaccent" unicode="&#x17c;" horiz-adv-x="457" 
d="M-32 20l477 479h-370l4 20h395l-4 -20l-476 -479h371l-5 -20h-396zM303 653l16 77h20l-16 -77h-20z" />
    <glyph glyph-name="Zcaron" unicode="&#x17d;" horiz-adv-x="587" 
d="M-36 20l656 670h-509l5 20h534l-5 -20l-656 -670h510l-4 -20h-535zM329 909l18 12l68 -63l94 63l13 -12l-104 -74h-16z" />
    <glyph glyph-name="zcaron" unicode="&#x17e;" horiz-adv-x="457" 
d="M-32 20l477 479h-370l4 20h395l-4 -20l-476 -479h371l-5 -20h-396zM223 718l18 12l68 -63l94 63l13 -12l-104 -74h-16z" />
    <glyph glyph-name="uni018F" unicode="&#x18f;" horiz-adv-x="707" 
d="M281 -10q-56 0 -102 20t-79 56.5t-50.5 86t-17.5 109.5q0 24 3 49t10 51h603q2 17 3.5 32.5t1.5 32.5q0 78 -28.5 138t-80 94.5t-120.5 34.5q-50 0 -102 -19t-96.5 -54t-72.5 -82l-18 9q28 48 75.5 85.5t105 59.5t112.5 22q56 0 102 -23t78.5 -63.5t50 -94t17.5 -115.5
q0 -70 -22 -133.5t-60 -117.5t-88.5 -94t-108 -62t-116.5 -22zM281 12q63 0 122 25t108.5 69.5t84 104.5t47.5 129h-580q-4 -18 -6 -36.5t-2 -37.5q0 -48 13.5 -93t41 -81.5t70 -58t101.5 -21.5z" />
    <glyph glyph-name="florin" unicode="&#x192;" horiz-adv-x="487" 
d="M26 -170q-28 0 -51 7.5t-37 26.5l18 12q14 -16 34 -21t39 -5q26 0 54 15t49.5 41t28.5 58l101 474h-71l4 20h72l17 82q13 63 38 108t59.5 68.5t75.5 23.5q27 0 50 -9.5t33 -24.5l-18 -12q-9 12 -27.5 19.5t-40.5 7.5q-54 0 -93 -46.5t-57 -134.5l-17 -82h146l-4 -20h-147
l-101 -474q-8 -39 -34 -69t-58.5 -47.5t-62.5 -17.5z" />
    <glyph glyph-name="Ohorn" unicode="&#x1a0;" horiz-adv-x="726" 
d="M305 -5q-67 0 -115 24t-78.5 65t-45 92.5t-14.5 107.5q0 69 20 133t56.5 118.5t85.5 94.5t107.5 62.5t121.5 22.5q67 0 115 -24.5t79 -65.5t45.5 -93t14.5 -108q0 -69 -20 -132.5t-56.5 -117.5t-86 -94t-107.5 -62.5t-122 -22.5zM308 15q78 0 145.5 34.5t117.5 92.5
t78 131t28 151q0 71 -24.5 133t-76.5 100t-135 38q-78 0 -145 -34t-117.5 -92.5t-78.5 -132t-28 -151.5q0 -71 24.5 -132.5t76.5 -99.5t135 -38zM496 690l4 20q26 0 49.5 6t35.5 17q10 9 16.5 24t11.5 37h22q-5 -18 -9 -31t-10 -22.5t-17 -20.5q-10 -9 -26.5 -16
t-36.5 -10.5t-40 -3.5z" />
    <glyph glyph-name="ohorn" unicode="&#x1a1;" horiz-adv-x="561" 
d="M219 -10q-63 0 -105 29t-63 78t-21 108q0 68 24.5 126.5t66.5 102.5t95 68.5t109 24.5q63 0 104.5 -29.5t62.5 -78.5t21 -109q0 -67 -24 -125t-65.5 -102t-94.5 -68.5t-110 -24.5zM222 10q52 0 100.5 22.5t87 63t61 94.5t22.5 116q0 55 -19 100.5t-57 73t-96 27.5
q-52 0 -100.5 -23t-87 -64t-61 -95t-22.5 -117q0 -55 19 -100t57.5 -71.5t95.5 -26.5zM375 499l4 20q26 0 49.5 6t35.5 17q10 9 16.5 24t11.5 37h22q-5 -18 -9 -31t-10 -22.5t-17 -20.5q-10 -9 -26.5 -16t-36.5 -10.5t-40 -3.5z" />
    <glyph glyph-name="Uhorn" unicode="&#x1af;" horiz-adv-x="723" 
d="M298 -5q-81 0 -128 31.5t-67 83.5t-20 115q0 32 4 64.5t11 65.5l75 355h20l-75 -355q-7 -32 -11 -63.5t-4 -63.5q0 -59 17.5 -107.5t60.5 -77t117 -28.5q76 0 133 29.5t96.5 79t64.5 110t38 121.5l75 355h20l-75 -355q-15 -72 -43 -137t-70.5 -115t-101.5 -79t-137 -29z
M702 690l4 20q26 0 49.5 6t35.5 17q10 9 16.5 24t11.5 37h22q-5 -18 -9 -31t-10 -22.5t-17 -20.5q-10 -9 -26.5 -16t-36.5 -10.5t-40 -3.5z" />
    <glyph glyph-name="uhorn" unicode="&#x1b0;" horiz-adv-x="551" 
d="M167 -10q-120 0 -120 139q0 22 3 46.5t9 52.5l62 291h20l-62 -291q-12 -55 -12 -97q0 -121 105 -121q48 0 96 23t89.5 63.5t66.5 92.5l70 330h20l-96 -452q-2 -11 -4.5 -21t-2.5 -12q0 -14 13 -14l-5 -20q-4 0 -7 0.5t-5 1.5q-7 3 -11 10t-4 17q0 2 1 7.5t5 26.5t14 69
q-46 -65 -112 -103.5t-133 -38.5zM497 499l4 20q26 0 49.5 6t35.5 17q10 9 16.5 24t11.5 37h22q-5 -18 -9 -31t-10 -22.5t-17 -20.5q-10 -9 -26.5 -16t-36.5 -10.5t-40 -3.5z" />
    <glyph glyph-name="uni01C4" unicode="&#x1c4;" horiz-adv-x="1271" 
d="M648 20l656 670h-509l5 20h534l-5 -20l-656 -670h510l-4 -20h-535zM184 710h217q87 0 142.5 -36t82.5 -97t27 -137q0 -94 -30 -174.5t-84 -140t-128 -92.5t-161 -33h-217zM254 20q89 0 159 33.5t119 92t75 133t26 156.5q0 75 -26.5 132.5t-79 90t-130.5 32.5h-197
l-143 -670h197zM1006 906l18 12l68 -63l94 63l13 -12l-104 -74h-16z" />
    <glyph glyph-name="uni01C5" unicode="&#x1c5;" horiz-adv-x="1141" 
d="M184 710h217q87 0 142.5 -36t82.5 -97t27 -137q0 -94 -30 -174.5t-84 -140t-128 -92.5t-161 -33h-217zM254 20q89 0 159 33.5t119 92t75 133t26 156.5q0 75 -26.5 132.5t-79 90t-130.5 32.5h-197l-143 -670h197zM652 20l477 479h-370l4 20h395l-4 -20l-476 -479h371
l-5 -20h-396zM905 718l18 12l68 -63l94 63l13 -12l-104 -74h-16z" />
    <glyph glyph-name="uni01C6" unicode="&#x1c6;" horiz-adv-x="1036" 
d="M218 -10q-59 0 -101 31.5t-64 82t-22 107.5q0 60 24 116t65 101.5t93.5 72t109.5 26.5q68 0 111.5 -38.5t62.5 -90.5l70 332h21l-147 -687q-1 -3 -1 -5.5v-4.5q0 -13 12 -13l-4 -20q-4 0 -7 0.5t-5 1.5q-8 3 -12 10.5t-4 17.5q0 2 0.5 6.5t4 20.5t10.5 51
q-42 -52 -101.5 -85t-115.5 -33zM222 10q29 0 64 12.5t69 35t59 51t34 60.5l40 187q-5 42 -30.5 76t-62 54.5t-76.5 20.5q-55 0 -103.5 -26t-85.5 -69t-58 -95t-21 -104q0 -54 21.5 -100.5t60 -74.5t89.5 -28zM547 20l477 479h-370l4 20h395l-4 -20l-476 -479h371l-5 -20
h-396zM800 718l18 12l68 -63l94 63l13 -12l-104 -74h-16z" />
    <glyph glyph-name="uni01C7" unicode="&#x1c7;" horiz-adv-x="1010" 
d="M184 710h20l-147 -690h423l-4 -20h-443zM662 -11q-49 0 -81.5 12t-60.5 32l14 16q23 -18 55.5 -30t76.5 -12q60 0 100 24t66.5 68.5t45 107.5t35.5 142l77 360h20l-77 -360q-18 -85 -37.5 -151.5t-48 -113t-73 -71t-112.5 -24.5z" />
    <glyph glyph-name="uni01C8" unicode="&#x1c8;" horiz-adv-x="742" 
d="M184 710h20l-147 -690h423l-4 -20h-443zM434 -170q-28 0 -51 7.5t-37 26.5l18 12q14 -16 34 -21t39 -5q26 0 54 15t49.5 41t28.5 58l118 555h20l-118 -555q-8 -39 -34 -69t-58.5 -47.5t-62.5 -17.5zM732 730h20l-16 -77h-20z" />
    <glyph glyph-name="uni01C9" unicode="&#x1c9;" horiz-adv-x="414" 
d="M96 -5q-28 0 -44 16.5t-16 44.5q0 5 0.5 10t1.5 11l139 653h20l-139 -653q-1 -4 -1.5 -8t-0.5 -8q0 -47 52 -47q11 0 26 2.5t28 6.5l3 -16q-13 -4 -34 -8t-35 -4zM106 -170q-28 0 -51 7.5t-37 26.5l18 12q14 -16 34 -21t39 -5q26 0 54 15t49.5 41t28.5 58l118 555h20
l-118 -555q-8 -39 -34 -69t-58.5 -47.5t-62.5 -17.5zM404 730h20l-16 -77h-20z" />
    <glyph glyph-name="uni01CA" unicode="&#x1ca;" horiz-adv-x="1201" 
d="M184 710h15l370 -681l144 680h20l-151 -709h-22l-364 671l-143 -671h-20zM853 -11q-49 0 -81.5 12t-60.5 32l14 16q23 -18 55.5 -30t76.5 -12q60 0 100 24t66.5 68.5t45 107.5t35.5 142l77 360h20l-77 -360q-18 -85 -37.5 -151.5t-48 -113t-73 -71t-112.5 -24.5z" />
    <glyph glyph-name="uni01CB" unicode="&#x1cb;" horiz-adv-x="933" 
d="M184 710h15l370 -681l144 680h20l-151 -709h-22l-364 671l-143 -671h-20zM625 -170q-28 0 -51 7.5t-37 26.5l18 12q14 -16 34 -21t39 -5q26 0 54 15t49.5 41t28.5 58l118 555h20l-118 -555q-8 -39 -34 -69t-58.5 -47.5t-62.5 -17.5zM923 730h20l-16 -77h-20z" />
    <glyph glyph-name="uni01CC" unicode="&#x1cc;" horiz-adv-x="730" 
d="M127 519h20l-28 -134q29 42 70 74t87 50t90 18q37 0 61.5 -13.5t36.5 -41.5t12 -71q0 -24 -3.5 -52t-10.5 -60l-61 -289h-20l61 289q7 32 10 58.5t3 48.5q0 57 -23 84t-70 27t-96.5 -23.5t-91.5 -64t-67 -91.5l-70 -328h-20zM422 -170q-28 0 -51 7.5t-37 26.5l18 12
q14 -16 34 -21t39 -5q26 0 54 15t49.5 41t28.5 58l118 555h20l-118 -555q-8 -39 -34 -69t-58.5 -47.5t-62.5 -17.5zM720 730h20l-16 -77h-20z" />
    <glyph glyph-name="Gcaron" unicode="&#x1e6;" horiz-adv-x="688" 
d="M301 -5q-61 0 -108 25t-78 67.5t-47 96t-16 109.5q0 81 30.5 156.5t84.5 135.5t126.5 95t157.5 35q95 0 148 -43.5t69 -111.5l-20 -6q-21 71 -70 106t-127 35q-82 0 -151.5 -34.5t-120.5 -93t-79 -129.5t-28 -145t29 -137.5t82.5 -102t126.5 -38.5q66 0 136 36.5
t146 114.5l-6 -30q-69 -70 -142 -105.5t-143 -35.5zM613 318h-158l4 20h178l-72 -338h-20zM380 906l18 12l68 -63l94 63l13 -12l-104 -74h-16z" />
    <glyph glyph-name="gcaron" unicode="&#x1e7;" horiz-adv-x="576" 
d="M166 -223q-82 0 -127 34.5t-61 89.5l20 6q20 -58 62 -84t110 -26q54 0 103 20.5t84.5 61t48.5 99.5l28 130q-42 -52 -102 -85t-116 -33q-58 0 -100 31.5t-64 82t-22 107.5q0 58 23.5 114t64.5 101.5t93.5 73t110.5 27.5q67 0 108 -38t66 -91l26 121h19l-115 -541
q-14 -68 -54.5 -113t-95 -66.5t-110.5 -21.5zM221 10q35 0 71 14t68.5 37.5t55.5 51.5t31 56l40 187q-6 44 -30.5 78t-60.5 53.5t-78 19.5q-57 0 -106 -27t-85 -71t-56.5 -95.5t-20.5 -100.5q0 -54 21 -100.5t59.5 -74.5t90.5 -28zM273 718l18 12l68 -63l94 63l13 -12
l-104 -74h-16z" />
    <glyph glyph-name="uni01EA" unicode="&#x1ea;" horiz-adv-x="726" 
d="M305 -5q-67 0 -115 24t-78.5 65t-45 92.5t-14.5 107.5q0 69 20 133t56.5 118.5t85.5 94.5t107.5 62.5t121.5 22.5q67 0 115 -24.5t79 -65.5t45.5 -93t14.5 -108q0 -69 -20 -132.5t-56.5 -117.5t-86 -94t-107.5 -62.5t-122 -22.5zM308 15q78 0 145.5 34.5t117.5 92.5
t78 131t28 151q0 71 -24.5 133t-76.5 100t-135 38q-78 0 -145 -34t-117.5 -92.5t-78.5 -132t-28 -151.5q0 -71 24.5 -132.5t76.5 -99.5t135 -38zM234 -113q0 30 22 59t64 66h4l5 -12q-44 -37 -61 -60.5t-17 -45.5q0 -14 10 -23.5t34 -17.5l-13 -17q-25 7 -36.5 20t-11.5 31z
" />
    <glyph glyph-name="uni01EB" unicode="&#x1eb;" horiz-adv-x="561" 
d="M219 -10q-63 0 -105 29t-63 78t-21 108q0 68 24.5 126.5t66.5 102.5t95 68.5t109 24.5q63 0 104.5 -29.5t62.5 -78.5t21 -109q0 -67 -24 -125t-65.5 -102t-94.5 -68.5t-110 -24.5zM222 10q52 0 100.5 22.5t87 63t61 94.5t22.5 116q0 55 -19 100.5t-57 73t-96 27.5
q-52 0 -100.5 -23t-87 -64t-61 -95t-22.5 -117q0 -55 19 -100t57.5 -71.5t95.5 -26.5zM157 -113q0 30 22 59t64 66h4l5 -12q-44 -37 -61 -60.5t-17 -45.5q0 -14 10 -23.5t34 -17.5l-13 -17q-25 7 -36.5 20t-11.5 31z" />
    <glyph glyph-name="uni01F1" unicode="&#x1f1;" horiz-adv-x="1259" 
d="M184 710h217q87 0 142.5 -36t82.5 -97t27 -137q0 -94 -30 -174.5t-84 -140t-128 -92.5t-161 -33h-217zM254 20q89 0 159 33.5t119 92t75 133t26 156.5q0 75 -26.5 132.5t-79 90t-130.5 32.5h-197l-143 -670h197zM636 20l656 670h-509l5 20h534l-5 -20l-656 -670h510
l-4 -20h-535z" />
    <glyph glyph-name="uni01F2" unicode="&#x1f2;" horiz-adv-x="1141" 
d="M184 710h217q87 0 142.5 -36t82.5 -97t27 -137q0 -94 -30 -174.5t-84 -140t-128 -92.5t-161 -33h-217zM254 20q89 0 159 33.5t119 92t75 133t26 156.5q0 75 -26.5 132.5t-79 90t-130.5 32.5h-197l-143 -670h197zM652 20l477 479h-370l4 20h395l-4 -20l-476 -479h371
l-5 -20h-396z" />
    <glyph glyph-name="uni01F3" unicode="&#x1f3;" horiz-adv-x="1036" 
d="M218 -10q-59 0 -101 31.5t-64 82t-22 107.5q0 60 24 116t65 101.5t93.5 72t109.5 26.5q68 0 111.5 -38.5t62.5 -90.5l70 332h21l-147 -687q-1 -3 -1 -5.5v-4.5q0 -13 12 -13l-4 -20q-4 0 -7 0.5t-5 1.5q-8 3 -12 10.5t-4 17.5q0 2 0.5 6.5t4 20.5t10.5 51
q-42 -52 -101.5 -85t-115.5 -33zM222 10q29 0 64 12.5t69 35t59 51t34 60.5l40 187q-5 42 -30.5 76t-62 54.5t-76.5 20.5q-55 0 -103.5 -26t-85.5 -69t-58 -95t-21 -104q0 -54 21.5 -100.5t60 -74.5t89.5 -28zM547 20l477 479h-370l4 20h395l-4 -20l-476 -479h371l-5 -20
h-396z" />
    <glyph glyph-name="uni01F4" unicode="&#x1f4;" horiz-adv-x="688" 
d="M301 -5q-61 0 -108 25t-78 67.5t-47 96t-16 109.5q0 81 30.5 156.5t84.5 135.5t126.5 95t157.5 35q95 0 148 -43.5t69 -111.5l-20 -6q-21 71 -70 106t-127 35q-82 0 -151.5 -34.5t-120.5 -93t-79 -129.5t-28 -145t29 -137.5t82.5 -102t126.5 -38.5q66 0 136 36.5
t146 114.5l-6 -30q-69 -70 -142 -105.5t-143 -35.5zM613 318h-158l4 20h178l-72 -338h-20zM450 833l-13 12l76 73h33z" />
    <glyph glyph-name="uni01F5" unicode="&#x1f5;" horiz-adv-x="576" 
d="M166 -223q-82 0 -127 34.5t-61 89.5l20 6q20 -58 62 -84t110 -26q54 0 103 20.5t84.5 61t48.5 99.5l28 130q-42 -52 -102 -85t-116 -33q-58 0 -100 31.5t-64 82t-22 107.5q0 58 23.5 114t64.5 101.5t93.5 73t110.5 27.5q67 0 108 -38t66 -91l26 121h19l-115 -541
q-14 -68 -54.5 -113t-95 -66.5t-110.5 -21.5zM221 10q35 0 71 14t68.5 37.5t55.5 51.5t31 56l40 187q-6 44 -30.5 78t-60.5 53.5t-78 19.5q-57 0 -106 -27t-85 -71t-56.5 -95.5t-20.5 -100.5q0 -54 21 -100.5t59.5 -74.5t90.5 -28zM409 645l-13 12l76 73h33z" />
    <glyph glyph-name="Aringacute" unicode="&#x1fa;" horiz-adv-x="647" 
d="M443 809l-13 12l76 73h33zM406 710h18l142 -710h-22l-51 254h-351l-159 -254h-22zM489 274l-80 407l-255 -407h335zM372 754q0 28 21 48t47 20q20 0 31.5 -13t11.5 -33q0 -28 -21 -48t-47 -20q-19 0 -31 13.5t-12 32.5zM436 806q-18 0 -33 -13.5t-15 -35.5
q0 -14 8.5 -23.5t22.5 -9.5q16 0 32.5 14t16.5 35q0 15 -9 24t-23 9z" />
    <glyph glyph-name="aringacute" unicode="&#x1fb;" horiz-adv-x="580" 
d="M216 -10q-57 0 -98.5 31.5t-64 82t-22.5 106.5q0 60 24 116.5t65 102t93 72t108 26.5q70 0 113.5 -38.5t62.5 -90.5l26 121h21l-102 -475q-1 -2 -1.5 -5.5t-0.5 -6.5q0 -12 12 -12l-4 -20h-4.5t-4.5 1q-10 3 -14.5 10t-4.5 18q0 3 1 8t4 20.5t10 50.5q-42 -52 -101 -85
t-118 -33zM218 10q32 0 68.5 13t70 35t58 51t33.5 60l40 187q-5 40 -27.5 74t-59 55.5t-83.5 21.5q-52 0 -100 -26.5t-85.5 -69.5t-59.5 -95.5t-22 -105.5t22 -98.5t59.5 -73.5t85.5 -28zM322 662q0 28 21 48t47 20q20 0 31.5 -13t11.5 -33q0 -28 -21 -48t-47 -20
q-19 0 -31 13.5t-12 32.5zM386 714q-18 0 -33 -13.5t-15 -35.5q0 -14 8.5 -23.5t22.5 -9.5q16 0 32.5 14t16.5 35q0 15 -9 24t-23 9zM412 856l-13 12l76 73h33z" />
    <glyph glyph-name="AEacute" unicode="&#x1fc;" horiz-adv-x="921" 
d="M511 710h440l-5 -20h-414l-67 -317h363l-5 -20h-363l-70 -333h422l-4 -20h-443l54 254h-266l-212 -254h-25zM424 274l85 404l-340 -404h255zM652 833l-13 12l76 73h33z" />
    <glyph glyph-name="aeacute" unicode="&#x1fd;" horiz-adv-x="883" 
d="M137 -10q-68 0 -102 39t-34 91q0 53 32 93t86.5 62t121.5 22q34 0 68.5 -5.5t63.5 -14.5q7 26 18 51t25 48q0 60 -33 95.5t-92 35.5q-39 0 -83.5 -16.5t-92.5 -47.5l-8 16q109 68 188 68q58 0 96.5 -31.5t43.5 -92.5q43 56 102 90t122 34q55 0 98 -26t68 -71t25 -102
q0 -16 -2.5 -40t-10.5 -40h-450q-1 -11 -2 -21.5t-1 -20.5q0 -56 21.5 -100.5t59.5 -70t90 -25.5q57 0 112.5 30.5t86.5 78.5l18 -5q-21 -35 -57 -63.5t-79 -44.5t-86 -16q-61 0 -106 33t-66 88q-29 -43 -72.5 -70t-89 -39t-79.5 -12zM143 10q32 0 67.5 9.5t68.5 26.5
t57.5 40t33.5 51q-4 14 -6 30t-2 32q0 14 1.5 28t4.5 29q-30 11 -63.5 16t-65.5 5q-63 0 -112.5 -19t-77.5 -53t-28 -81q0 -29 12.5 -55t39.5 -42.5t70 -16.5zM821 268q4 14 5.5 28.5t1.5 28.5q0 47 -19 88.5t-57 67.5t-96 26t-112 -31t-94.5 -85t-58.5 -123h430zM474 645
l-13 12l76 73h33z" />
    <glyph glyph-name="Oslashacute" unicode="&#x1fe;" horiz-adv-x="726" 
d="M305 -5q-67 0 -115 24t-78.5 65t-45 92.5t-14.5 107.5q0 69 20 133t56.5 118.5t85.5 94.5t107.5 62.5t121.5 22.5q67 0 115 -24.5t79 -65.5t45.5 -93t14.5 -108q0 -69 -20 -132.5t-56.5 -117.5t-86 -94t-107.5 -62.5t-122 -22.5zM308 15q78 0 145.5 34.5t117.5 92.5
t78 131t28 151q0 71 -24.5 133t-76.5 100t-135 38q-78 0 -145 -34t-117.5 -92.5t-78.5 -132t-28 -151.5q0 -71 24.5 -132.5t76.5 -99.5t135 -38zM685 710l-584 -710h-25l584 710h25zM482 833l-13 12l76 73h33z" />
    <glyph glyph-name="oslashacute" unicode="&#x1ff;" horiz-adv-x="561" 
d="M441 645l-13 12l76 73h33zM215 -10q-56 0 -97.5 29.5t-64.5 79t-23 108.5q0 63 26 121t69 102.5t96 70.5t108 26t96 -29.5t64.5 -79t23.5 -110.5q0 -62 -25.5 -119t-68 -102t-95.5 -71t-109 -26zM218 10q50 0 99 24t89 65.5t63.5 94.5t23.5 111q0 56 -21.5 101.5t-59 73
t-87.5 27.5t-99 -24.5t-89 -66t-63.5 -95t-23.5 -112.5q0 -55 21 -100t59 -72t88 -27zM95 51l14 -13l-30 -38h-24zM96 51l339 428l15 -13l-341 -428zM435 479l32 40h25l-42 -53z" />
    <glyph glyph-name="uni0200" unicode="&#x200;" horiz-adv-x="647" 
d="M406 710h18l142 -710h-22l-51 254h-351l-159 -254h-22zM489 274l-80 407l-255 -407h335zM408 921h32l46 -73l-19 -12zM312 921h33l45 -73l-18 -12z" />
    <glyph glyph-name="uni0201" unicode="&#x201;" horiz-adv-x="580" 
d="M216 -10q-57 0 -98.5 31.5t-64 82t-22.5 106.5q0 60 24 116.5t65 102t93 72t108 26.5q70 0 113.5 -38.5t62.5 -90.5l26 121h21l-102 -475q-1 -2 -1.5 -5.5t-0.5 -6.5q0 -12 12 -12l-4 -20h-4.5t-4.5 1q-10 3 -14.5 10t-4.5 18q0 3 1 8t4 20.5t10 50.5q-42 -52 -101 -85
t-118 -33zM218 10q32 0 68.5 13t70 35t58 51t33.5 60l40 187q-5 40 -27.5 74t-59 55.5t-83.5 21.5q-52 0 -100 -26.5t-85.5 -69.5t-59.5 -95.5t-22 -105.5t22 -98.5t59.5 -73.5t85.5 -28zM338 730h32l46 -73l-19 -12zM242 730h33l45 -73l-18 -12z" />
    <glyph glyph-name="uni0202" unicode="&#x202;" horiz-adv-x="647" 
d="M406 710h18l142 -710h-22l-51 254h-351l-159 -254h-22zM489 274l-80 407l-255 -407h335zM377 844q4 20 16 37.5t30.5 28.5t39.5 11q29 0 43 -19t14 -43v-7.5t-1 -7.5h-18q0 3 0.5 6t0.5 6q0 48 -40 48q-25 0 -43 -18.5t-23 -41.5h-19z" />
    <glyph glyph-name="uni0203" unicode="&#x203;" horiz-adv-x="580" 
d="M216 -10q-57 0 -98.5 31.5t-64 82t-22.5 106.5q0 60 24 116.5t65 102t93 72t108 26.5q70 0 113.5 -38.5t62.5 -90.5l26 121h21l-102 -475q-1 -2 -1.5 -5.5t-0.5 -6.5q0 -12 12 -12l-4 -20h-4.5t-4.5 1q-10 3 -14.5 10t-4.5 18q0 3 1 8t4 20.5t10 50.5q-42 -52 -101 -85
t-118 -33zM218 10q32 0 68.5 13t70 35t58 51t33.5 60l40 187q-5 40 -27.5 74t-59 55.5t-83.5 21.5q-52 0 -100 -26.5t-85.5 -69.5t-59.5 -95.5t-22 -105.5t22 -98.5t59.5 -73.5t85.5 -28zM307 653q4 20 16 37.5t30.5 28.5t39.5 11q29 0 43 -19t14 -43v-7.5t-1 -7.5h-18
q0 3 0.5 6t0.5 6q0 48 -40 48q-25 0 -43 -18.5t-23 -41.5h-19z" />
    <glyph glyph-name="uni0204" unicode="&#x204;" horiz-adv-x="588" 
d="M184 710h434l-4 -20h-414l-68 -317h363l-4 -20h-363l-71 -333h423l-4 -20h-443zM383 921h32l46 -73l-19 -12zM287 921h33l45 -73l-18 -12z" />
    <glyph glyph-name="uni0205" unicode="&#x205;" horiz-adv-x="527" 
d="M230 -10q-59 0 -102.5 30t-67.5 80t-26 110q-2 59 18 115.5t58 102t90.5 72.5t114.5 27q45 0 82.5 -15.5t60.5 -47t24 -79.5q3 -79 -61 -108t-196 -29q-41 0 -84.5 1.5t-97.5 5.5l8 19q56 -3 97.5 -4.5t79.5 -1.5q89 0 140.5 12.5t73 38t19.5 64.5q-1 45 -24 72t-57 39.5
t-69 12.5q-55 0 -102.5 -26t-82.5 -68t-53.5 -92.5t-17.5 -99.5q2 -60 23.5 -108t61.5 -75.5t97 -27.5q68 0 116.5 32t76.5 86l21 -6q-21 -40 -52.5 -69.5t-73.5 -46t-95 -16.5zM312 730h32l46 -73l-19 -12zM216 730h33l45 -73l-18 -12z" />
    <glyph glyph-name="uni0206" unicode="&#x206;" horiz-adv-x="588" 
d="M184 710h434l-4 -20h-414l-68 -317h363l-4 -20h-363l-71 -333h423l-4 -20h-443zM352 844q4 20 16 37.5t30.5 28.5t39.5 11q29 0 43 -19t14 -43v-7.5t-1 -7.5h-18q0 3 0.5 6t0.5 6q0 48 -40 48q-25 0 -43 -18.5t-23 -41.5h-19z" />
    <glyph glyph-name="uni0207" unicode="&#x207;" horiz-adv-x="527" 
d="M230 -10q-59 0 -102.5 30t-67.5 80t-26 110q-2 59 18 115.5t58 102t90.5 72.5t114.5 27q45 0 82.5 -15.5t60.5 -47t24 -79.5q3 -79 -61 -108t-196 -29q-41 0 -84.5 1.5t-97.5 5.5l8 19q56 -3 97.5 -4.5t79.5 -1.5q89 0 140.5 12.5t73 38t19.5 64.5q-1 45 -24 72t-57 39.5
t-69 12.5q-55 0 -102.5 -26t-82.5 -68t-53.5 -92.5t-17.5 -99.5q2 -60 23.5 -108t61.5 -75.5t97 -27.5q68 0 116.5 32t76.5 86l21 -6q-21 -40 -52.5 -69.5t-73.5 -46t-95 -16.5zM281 653q4 20 16 37.5t30.5 28.5t39.5 11q29 0 43 -19t14 -43v-7.5t-1 -7.5h-18q0 3 0.5 6
t0.5 6q0 48 -40 48q-25 0 -43 -18.5t-23 -41.5h-19z" />
    <glyph glyph-name="uni0208" unicode="&#x208;" horiz-adv-x="214" 
d="M184 709h20l-151 -709h-20zM186 918h32l46 -73l-19 -12zM90 918h33l45 -73l-18 -12z" />
    <glyph glyph-name="uni0209" unicode="&#x209;" horiz-adv-x="182" 
d="M127 519h20l-110 -519h-20zM134 730h32l46 -73l-19 -12zM38 730h33l45 -73l-18 -12z" />
    <glyph glyph-name="uni020A" unicode="&#x20a;" horiz-adv-x="214" 
d="M184 709h20l-151 -709h-20zM155 841q4 20 16 37.5t30.5 28.5t39.5 11q29 0 43 -19t14 -43v-7.5t-1 -7.5h-18q0 3 0.5 6t0.5 6q0 48 -40 48q-25 0 -43 -18.5t-23 -41.5h-19z" />
    <glyph glyph-name="uni020B" unicode="&#x20b;" horiz-adv-x="182" 
d="M127 519h20l-110 -519h-20zM93 653q4 20 16 37.5t30.5 28.5t39.5 11q29 0 43 -19t14 -43v-7.5t-1 -7.5h-18q0 3 0.5 6t0.5 6q0 48 -40 48q-25 0 -43 -18.5t-23 -41.5h-19z" />
    <glyph glyph-name="uni020C" unicode="&#x20c;" horiz-adv-x="726" 
d="M305 -5q-67 0 -115 24t-78.5 65t-45 92.5t-14.5 107.5q0 69 20 133t56.5 118.5t85.5 94.5t107.5 62.5t121.5 22.5q67 0 115 -24.5t79 -65.5t45.5 -93t14.5 -108q0 -69 -20 -132.5t-56.5 -117.5t-86 -94t-107.5 -62.5t-122 -22.5zM308 15q78 0 145.5 34.5t117.5 92.5
t78 131t28 151q0 71 -24.5 133t-76.5 100t-135 38q-78 0 -145 -34t-117.5 -92.5t-78.5 -132t-28 -151.5q0 -71 24.5 -132.5t76.5 -99.5t135 -38zM453 918h32l46 -73l-19 -12zM357 918h33l45 -73l-18 -12z" />
    <glyph glyph-name="uni020D" unicode="&#x20d;" horiz-adv-x="561" 
d="M219 -10q-63 0 -105 29t-63 78t-21 108q0 68 24.5 126.5t66.5 102.5t95 68.5t109 24.5q63 0 104.5 -29.5t62.5 -78.5t21 -109q0 -67 -24 -125t-65.5 -102t-94.5 -68.5t-110 -24.5zM222 10q52 0 100.5 22.5t87 63t61 94.5t22.5 116q0 55 -19 100.5t-57 73t-96 27.5
q-52 0 -100.5 -23t-87 -64t-61 -95t-22.5 -117q0 -55 19 -100t57.5 -71.5t95.5 -26.5zM319 730h32l46 -73l-19 -12zM223 730h33l45 -73l-18 -12z" />
    <glyph glyph-name="uni020E" unicode="&#x20e;" horiz-adv-x="726" 
d="M305 -5q-67 0 -115 24t-78.5 65t-45 92.5t-14.5 107.5q0 69 20 133t56.5 118.5t85.5 94.5t107.5 62.5t121.5 22.5q67 0 115 -24.5t79 -65.5t45.5 -93t14.5 -108q0 -69 -20 -132.5t-56.5 -117.5t-86 -94t-107.5 -62.5t-122 -22.5zM308 15q78 0 145.5 34.5t117.5 92.5
t78 131t28 151q0 71 -24.5 133t-76.5 100t-135 38q-78 0 -145 -34t-117.5 -92.5t-78.5 -132t-28 -151.5q0 -71 24.5 -132.5t76.5 -99.5t135 -38zM422 841q4 20 16 37.5t30.5 28.5t39.5 11q29 0 43 -19t14 -43v-7.5t-1 -7.5h-18q0 3 0.5 6t0.5 6q0 48 -40 48q-25 0 -43 -18.5
t-23 -41.5h-19z" />
    <glyph glyph-name="uni020F" unicode="&#x20f;" horiz-adv-x="561" 
d="M219 -10q-63 0 -105 29t-63 78t-21 108q0 68 24.5 126.5t66.5 102.5t95 68.5t109 24.5q63 0 104.5 -29.5t62.5 -78.5t21 -109q0 -67 -24 -125t-65.5 -102t-94.5 -68.5t-110 -24.5zM222 10q52 0 100.5 22.5t87 63t61 94.5t22.5 116q0 55 -19 100.5t-57 73t-96 27.5
q-52 0 -100.5 -23t-87 -64t-61 -95t-22.5 -117q0 -55 19 -100t57.5 -71.5t95.5 -26.5zM288 653q4 20 16 37.5t30.5 28.5t39.5 11q29 0 43 -19t14 -43v-7.5t-1 -7.5h-18q0 3 0.5 6t0.5 6q0 48 -40 48q-25 0 -43 -18.5t-23 -41.5h-19z" />
    <glyph glyph-name="uni0210" unicode="&#x210;" horiz-adv-x="616" 
d="M33 0l151 710h275q47 0 80.5 -25.5t51 -66t17.5 -85.5q0 -46 -17.5 -89.5t-48.5 -79.5t-71 -59t-85 -26l111 -279h-24l-111 279h-250l-59 -279h-20zM378 299q44 0 82 20.5t67 54.5t45 75t16 81q0 43 -16.5 79t-46.5 58.5t-71 22.5h-254l-83 -391h261zM391 921h32l46 -73
l-19 -12zM295 921h33l45 -73l-18 -12z" />
    <glyph glyph-name="uni0211" unicode="&#x211;" horiz-adv-x="317" 
d="M127 519h20l-28 -134q41 61 94 94.5t107 38.5q5 1 10 1h9l-4 -20q-70 -3 -131 -48.5t-97 -122.5l-70 -328h-20zM186 730h32l46 -73l-19 -12zM90 730h33l45 -73l-18 -12z" />
    <glyph glyph-name="uni0212" unicode="&#x212;" horiz-adv-x="616" 
d="M33 0l151 710h275q47 0 80.5 -25.5t51 -66t17.5 -85.5q0 -46 -17.5 -89.5t-48.5 -79.5t-71 -59t-85 -26l111 -279h-24l-111 279h-250l-59 -279h-20zM378 299q44 0 82 20.5t67 54.5t45 75t16 81q0 43 -16.5 79t-46.5 58.5t-71 22.5h-254l-83 -391h261zM360 844
q4 20 16 37.5t30.5 28.5t39.5 11q29 0 43 -19t14 -43v-7.5t-1 -7.5h-18q0 3 0.5 6t0.5 6q0 48 -40 48q-25 0 -43 -18.5t-23 -41.5h-19z" />
    <glyph glyph-name="uni0213" unicode="&#x213;" horiz-adv-x="317" 
d="M127 519h20l-28 -134q41 61 94 94.5t107 38.5q5 1 10 1h9l-4 -20q-70 -3 -131 -48.5t-97 -122.5l-70 -328h-20zM155 653q4 20 16 37.5t30.5 28.5t39.5 11q29 0 43 -19t14 -43v-7.5t-1 -7.5h-18q0 3 0.5 6t0.5 6q0 48 -40 48q-25 0 -43 -18.5t-23 -41.5h-19z" />
    <glyph glyph-name="uni0214" unicode="&#x214;" horiz-adv-x="723" 
d="M298 -5q-81 0 -128 31.5t-67 83.5t-20 115q0 32 4 64.5t11 65.5l75 355h20l-75 -355q-7 -32 -11 -63.5t-4 -63.5q0 -59 17.5 -107.5t60.5 -77t117 -28.5q76 0 133 29.5t96.5 79t64.5 110t38 121.5l75 355h20l-75 -355q-15 -72 -43 -137t-70.5 -115t-101.5 -79t-137 -29z
M438 918h32l46 -73l-19 -12zM342 918h33l45 -73l-18 -12z" />
    <glyph glyph-name="uni0215" unicode="&#x215;" horiz-adv-x="551" 
d="M167 -10q-120 0 -120 139q0 22 3 46.5t9 52.5l62 291h20l-62 -291q-12 -55 -12 -97q0 -121 105 -121q48 0 96 23t89.5 63.5t66.5 92.5l70 330h20l-96 -452q-2 -11 -4.5 -21t-2.5 -12q0 -14 13 -14l-5 -20q-4 0 -7 0.5t-5 1.5q-7 3 -11 10t-4 17q0 2 1 7.5t5 26.5t14 69
q-46 -65 -112 -103.5t-133 -38.5zM324 730h32l46 -73l-19 -12zM228 730h33l45 -73l-18 -12z" />
    <glyph glyph-name="uni0216" unicode="&#x216;" horiz-adv-x="723" 
d="M298 -5q-81 0 -128 31.5t-67 83.5t-20 115q0 32 4 64.5t11 65.5l75 355h20l-75 -355q-7 -32 -11 -63.5t-4 -63.5q0 -59 17.5 -107.5t60.5 -77t117 -28.5q76 0 133 29.5t96.5 79t64.5 110t38 121.5l75 355h20l-75 -355q-15 -72 -43 -137t-70.5 -115t-101.5 -79t-137 -29z
M407 841q4 20 16 37.5t30.5 28.5t39.5 11q29 0 43 -19t14 -43v-7.5t-1 -7.5h-18q0 3 0.5 6t0.5 6q0 48 -40 48q-25 0 -43 -18.5t-23 -41.5h-19z" />
    <glyph glyph-name="uni0217" unicode="&#x217;" horiz-adv-x="551" 
d="M167 -10q-120 0 -120 139q0 22 3 46.5t9 52.5l62 291h20l-62 -291q-12 -55 -12 -97q0 -121 105 -121q48 0 96 23t89.5 63.5t66.5 92.5l70 330h20l-96 -452q-2 -11 -4.5 -21t-2.5 -12q0 -14 13 -14l-5 -20q-4 0 -7 0.5t-5 1.5q-7 3 -11 10t-4 17q0 2 1 7.5t5 26.5t14 69
q-46 -65 -112 -103.5t-133 -38.5zM293 653q4 20 16 37.5t30.5 28.5t39.5 11q29 0 43 -19t14 -43v-7.5t-1 -7.5h-18q0 3 0.5 6t0.5 6q0 48 -40 48q-25 0 -43 -18.5t-23 -41.5h-19z" />
    <glyph glyph-name="uni0218" unicode="&#x218;" horiz-adv-x="579" 
d="M244 -5q-84 0 -140.5 26.5t-104.5 83.5l16 13q21 -25 44.5 -44.5t51.5 -33t61.5 -20.5t75.5 -7q75 0 131 22t87 64t31 100q0 47 -21 73t-63.5 42t-107.5 32q-64 16 -108.5 30.5t-67.5 41t-23 78.5q0 49 19.5 89t55.5 69t86 45t111 16q45 0 80.5 -9t63 -28t48.5 -48
l-16 -14q-16 22 -34 37.5t-39.5 25t-46 13.5t-54.5 4q-82 0 -138.5 -27t-85.5 -72t-29 -99q0 -43 19.5 -66t59.5 -37t103 -30q71 -18 117.5 -35.5t69 -46.5t22.5 -82q0 -52 -20.5 -91t-57.5 -64.5t-87 -38t-109 -12.5zM190 -167l22 58h-9l13 59h25l-12 -59l-25 -58h-14z" />
    <glyph glyph-name="uni0219" unicode="&#x219;" horiz-adv-x="450" 
d="M159 -10q-56 0 -99.5 20.5t-71.5 63.5l17 13q30 -39 68 -58t90 -19q55 0 98.5 18t69 50.5t25.5 76.5t-39 64t-109 38q-43 11 -73.5 22t-46.5 28.5t-16 48.5q0 58 29 96t77 56.5t103 18.5q60 0 97.5 -21.5t47.5 -53.5l-19 -8q-11 31 -49 47t-85 16q-41 0 -83 -15
t-69.5 -46.5t-27.5 -83.5q0 -38 30.5 -53.5t89.5 -31.5q50 -13 86.5 -26t57 -33.5t20.5 -55.5q0 -56 -28.5 -94.5t-77.5 -58t-112 -19.5zM123 -167l22 58h-9l13 59h25l-12 -59l-25 -58h-14z" />
    <glyph glyph-name="uni021A" unicode="&#x21a;" horiz-adv-x="574" 
d="M356 690h-258l4 20h536l-4 -20h-258l-147 -690h-20zM170 -167l22 58h-9l13 59h25l-12 -59l-25 -58h-14z" />
    <glyph glyph-name="uni021B" unicode="&#x21b;" horiz-adv-x="281" 
d="M48 58q0 4 0.5 8.5t1.5 8.5l90 424h-71l4 20h72l38 181h20l-38 -181h118l-4 -20h-119l-80 -373q-6 -28 -8.5 -40.5t-2.5 -19.5q0 -25 16.5 -38t38.5 -13t40.5 6t31 12t13.5 7l7 -16l-13.5 -7.5t-35.5 -14.5t-48 -7q-31 0 -51 17.5t-20 45.5zM69 -167l22 58h-9l13 59h25
l-12 -59l-25 -58h-14z" />
    <glyph glyph-name="uni022A" unicode="&#x22a;" horiz-adv-x="726" 
d="M305 -5q-67 0 -115 24t-78.5 65t-45 92.5t-14.5 107.5q0 69 20 133t56.5 118.5t85.5 94.5t107.5 62.5t121.5 22.5q67 0 115 -24.5t79 -65.5t45.5 -93t14.5 -108q0 -69 -20 -132.5t-56.5 -117.5t-86 -94t-107.5 -62.5t-122 -22.5zM308 15q78 0 145.5 34.5t117.5 92.5
t78 131t28 151q0 71 -24.5 133t-76.5 100t-135 38q-78 0 -145 -34t-117.5 -92.5t-78.5 -132t-28 -151.5q0 -71 24.5 -132.5t76.5 -99.5t135 -38zM423 841l16 77h20l-16 -77h-20zM534 841l16 77h20l-16 -77h-20zM408 1085l4 20h266l-4 -20h-266z" />
    <glyph glyph-name="uni022B" unicode="&#x22b;" horiz-adv-x="561" 
d="M219 -10q-63 0 -105 29t-63 78t-21 108q0 68 24.5 126.5t66.5 102.5t95 68.5t109 24.5q63 0 104.5 -29.5t62.5 -78.5t21 -109q0 -67 -24 -125t-65.5 -102t-94.5 -68.5t-110 -24.5zM222 10q52 0 100.5 22.5t87 63t61 94.5t22.5 116q0 55 -19 100.5t-57 73t-96 27.5
q-52 0 -100.5 -23t-87 -64t-61 -95t-22.5 -117q0 -55 19 -100t57.5 -71.5t95.5 -26.5zM289 653l16 77h20l-16 -77h-20zM400 653l16 77h20l-16 -77h-20zM274 897l4 20h266l-4 -20h-266z" />
    <glyph glyph-name="uni022C" unicode="&#x22c;" horiz-adv-x="726" 
d="M305 -5q-67 0 -115 24t-78.5 65t-45 92.5t-14.5 107.5q0 69 20 133t56.5 118.5t85.5 94.5t107.5 62.5t121.5 22.5q67 0 115 -24.5t79 -65.5t45.5 -93t14.5 -108q0 -69 -20 -132.5t-56.5 -117.5t-86 -94t-107.5 -62.5t-122 -22.5zM308 15q78 0 145.5 34.5t117.5 92.5
t78 131t28 151q0 71 -24.5 133t-76.5 100t-135 38q-78 0 -145 -34t-117.5 -92.5t-78.5 -132t-28 -151.5q0 -71 24.5 -132.5t76.5 -99.5t135 -38zM546 851q-28 0 -45.5 9.5t-31.5 19t-34 9.5t-33 -10.5t-19 -22.5t-7 -15h-19q0 2 4.5 12.5t14 23t25.5 22t40 9.5q18 0 31 -5.5
t24.5 -13.5t24.5 -13.5t31 -5.5q26 0 40 11t20 23t6 14h19q-1 -3 -5.5 -14t-15 -23t-27.5 -21t-43 -9zM408 1085l4 20h266l-4 -20h-266z" />
    <glyph glyph-name="uni022D" unicode="&#x22d;" horiz-adv-x="561" 
d="M219 -10q-63 0 -105 29t-63 78t-21 108q0 68 24.5 126.5t66.5 102.5t95 68.5t109 24.5q63 0 104.5 -29.5t62.5 -78.5t21 -109q0 -67 -24 -125t-65.5 -102t-94.5 -68.5t-110 -24.5zM222 10q52 0 100.5 22.5t87 63t61 94.5t22.5 116q0 55 -19 100.5t-57 73t-96 27.5
q-52 0 -100.5 -23t-87 -64t-61 -95t-22.5 -117q0 -55 19 -100t57.5 -71.5t95.5 -26.5zM412 663q-28 0 -45.5 9.5t-31.5 19t-34 9.5t-33 -10.5t-19 -22.5t-7 -15h-19q0 2 4.5 12.5t14 23t25.5 22t40 9.5q18 0 31 -5.5t24.5 -13.5t24.5 -13.5t31 -5.5q26 0 40 11t20 23t6 14
h19q-1 -3 -5.5 -14t-15 -23t-27.5 -21t-43 -9zM274 897l4 20h266l-4 -20h-266z" />
    <glyph glyph-name="uni0232" unicode="&#x232;" horiz-adv-x="594" 
d="M277 277l-180 433h23l172 -412l348 412h23l-366 -435l-59 -275h-20zM282 874l4 20h266l-4 -20h-266z" />
    <glyph glyph-name="uni0233" unicode="&#x233;" horiz-adv-x="446" 
d="M-37 -207q41 8 66.5 24t48 44.5t52.5 75.5l41 63l-119 519h22l112 -494l58 92q47 75 79.5 130.5t55 100t38 85.5t28.5 86h21q-13 -48 -28.5 -90t-38 -87t-56.5 -102.5t-84 -136.5l-82 -129q-36 -56 -62 -92.5t-48.5 -58t-46.5 -32t-55 -15.5zM195 686l4 20h266l-4 -20
h-266z" />
    <glyph glyph-name="uni0237" unicode="&#x237;" horiz-adv-x="182" 
d="M-126 -170q-28 0 -51 7.5t-37 26.5l18 12q14 -16 34 -21t39 -5q26 0 54 15t49.5 41t28.5 58l118 555h20l-118 -555q-8 -39 -34 -69t-58.5 -47.5t-62.5 -17.5z" />
    <glyph glyph-name="uni0259" unicode="&#x259;" horiz-adv-x="548" 
d="M203 -10q-56 0 -98 26.5t-65.5 73t-23.5 105.5q0 17 1.5 37.5t7.5 36.5h451q2 11 2.5 21.5t0.5 20.5q0 57 -21.5 101t-60 69.5t-89.5 25.5q-38 0 -76.5 -14t-70.5 -38.5t-53 -56.5l-17 5q21 36 56.5 64t79 44t86.5 16q56 0 97.5 -29.5t65 -79.5t23.5 -112q0 -63 -25 -120
t-67 -101t-95 -69.5t-109 -25.5zM207 10q58 0 112 31t94.5 85.5t57.5 122.5h-429q-2 -13 -3 -25t-1 -23q0 -85 46 -138t123 -53z" />
    <glyph glyph-name="uni02B9" unicode="&#x2b9;" horiz-adv-x="158" 
d="M139 569l30 141h12l-35 -141h-7z" />
    <glyph glyph-name="uni02BB" unicode="&#x2bb;" horiz-adv-x="113" 
d="M163 730l-17 -58h10l-12 -59h-26l13 59l18 58h14z" />
    <glyph glyph-name="uni02BC" unicode="&#x2bc;" horiz-adv-x="173" 
d="M143 645l-9 12l63 73h26z" />
    <glyph glyph-name="circumflex" unicode="&#x2c6;" horiz-adv-x="293" 
d="M128 627l104 74h16l73 -74l-18 -12l-68 63l-94 -63z" />
    <glyph glyph-name="caron" unicode="&#x2c7;" horiz-adv-x="293" 
d="M147 718l18 12l68 -63l94 63l13 -12l-104 -74h-16z" />
    <glyph glyph-name="uni02C8" unicode="&#x2c8;" horiz-adv-x="144" 
d="M139 775v-415h-20v415h20z" />
    <glyph glyph-name="uni02C9" unicode="&#x2c9;" horiz-adv-x="355" 
d="M141 686l4 20h255l-4 -20h-255z" />
    <glyph glyph-name="uni02CC" unicode="&#x2cc;" horiz-adv-x="143" 
d="M34 285v-415h-20v415h20z" />
    <glyph glyph-name="breve" unicode="&#x2d8;" horiz-adv-x="242" 
d="M208 670q20 0 39.5 17.5t26.5 42.5h18q-4 -20 -18 -38t-32 -28.5t-37 -10.5q-25 0 -41 18t-16 44q0 4 0.5 7.5t1.5 7.5h19q-1 -3 -1 -6v-5q0 -19 11.5 -34t28.5 -15z" />
    <glyph glyph-name="dotaccent" unicode="&#x2d9;" horiz-adv-x="120" 
d="M134 653l16 77h20l-16 -77h-20z" />
    <glyph glyph-name="ring" unicode="&#x2da;" horiz-adv-x="209" 
d="M137 662q0 28 21 48t47 20q20 0 31.5 -13t11.5 -33q0 -28 -21 -48t-47 -20q-19 0 -31 13.5t-12 32.5zM201 714q-18 0 -33 -13.5t-15 -35.5q0 -14 8.5 -23.5t22.5 -9.5q16 0 32.5 14t16.5 35q0 15 -9 24t-23 9z" />
    <glyph glyph-name="ogonek" unicode="&#x2db;" horiz-adv-x="173" 
d="M-27 -113q0 30 22 59t64 66h4l5 -12q-44 -37 -61 -60.5t-17 -45.5q0 -14 10 -23.5t34 -17.5l-13 -17q-25 7 -36.5 20t-11.5 31z" />
    <glyph glyph-name="tilde" unicode="&#x2dc;" horiz-adv-x="364" 
d="M323 663q-28 0 -45.5 9.5t-31.5 19t-34 9.5t-33 -10.5t-19 -22.5t-7 -15h-19q0 2 4.5 12.5t14 23t25.5 22t40 9.5q18 0 31 -5.5t24.5 -13.5t24.5 -13.5t31 -5.5q26 0 40 11t20 23t6 14h19q-1 -3 -5.5 -14t-15 -23t-27.5 -21t-43 -9z" />
    <glyph glyph-name="hungarumlaut" unicode="&#x2dd;" horiz-adv-x="289" 
d="M147 645l-13 12l76 73h33zM243 645l-13 12l76 73h33z" />
    <glyph glyph-name="gravecomb" unicode="&#x300;" 
d="M150 730h32l44 -74l-16 -11z" />
    <glyph glyph-name="acutecomb" unicode="&#x301;" 
d="M143 645l-13 12l76 73h33z" />
    <glyph glyph-name="uni0302" unicode="&#x302;" 
d="M128 627l104 74h16l73 -74l-18 -12l-68 63l-94 -63z" />
    <glyph glyph-name="tildecomb" unicode="&#x303;" 
d="M323 663q-28 0 -45.5 9.5t-31.5 19t-34 9.5t-33 -10.5t-19 -22.5t-7 -15h-19q0 2 4.5 12.5t14 23t25.5 22t40 9.5q18 0 31 -5.5t24.5 -13.5t24.5 -13.5t31 -5.5q26 0 40 11t20 23t6 14h19q-1 -3 -5.5 -14t-15 -23t-27.5 -21t-43 -9z" />
    <glyph glyph-name="uni0304" unicode="&#x304;" 
d="M141 686l4 20h266l-4 -20h-266z" />
    <glyph glyph-name="uni0306" unicode="&#x306;" 
d="M208 670q20 0 39.5 17.5t26.5 42.5h18q-4 -20 -18 -38t-32 -28.5t-37 -10.5q-25 0 -41 18t-16 44q0 4 0.5 7.5t1.5 7.5h19q-1 -3 -1 -6v-5q0 -19 11.5 -34t28.5 -15z" />
    <glyph glyph-name="uni0307" unicode="&#x307;" 
d="M134 653l16 77h20l-16 -77h-20z" />
    <glyph glyph-name="uni0308" unicode="&#x308;" 
d="M134 653l16 77h20l-16 -77h-20zM245 653l16 77h20l-16 -77h-20z" />
    <glyph glyph-name="hookabovecomb" unicode="&#x309;" 
d="M150 682l-7 13q22 14 38.5 22t35.5 8q24 0 35 -15t0 -42q-7 -19 -24 -33t-42 -34l-8 11q23 18 37.5 31t18.5 25q6 16 1 27.5t-27 11.5q-13 0 -25.5 -6t-32.5 -19z" />
    <glyph glyph-name="uni030A" unicode="&#x30a;" 
d="M137 662q0 28 21 48t47 20q20 0 31.5 -13t11.5 -33q0 -28 -21 -48t-47 -20q-19 0 -31 13.5t-12 32.5zM201 714q-18 0 -33 -13.5t-15 -35.5q0 -14 8.5 -23.5t22.5 -9.5q16 0 32.5 14t16.5 35q0 15 -9 24t-23 9z" />
    <glyph glyph-name="uni030B" unicode="&#x30b;" 
d="M147 645l-13 12l76 73h33zM243 645l-13 12l76 73h33z" />
    <glyph glyph-name="uni030C" unicode="&#x30c;" 
d="M147 718l18 12l68 -63l94 63l13 -12l-104 -74h-16z" />
    <glyph glyph-name="uni030F" unicode="&#x30f;" 
d="M246 730h32l46 -73l-19 -12zM150 730h33l45 -73l-18 -12z" />
    <glyph glyph-name="uni0311" unicode="&#x311;" 
d="M134 653q4 20 16 37.5t30.5 28.5t39.5 11q29 0 43 -19t14 -43v-7.5t-1 -7.5h-18q0 3 0.5 6t0.5 6q0 48 -40 48q-25 0 -43 -18.5t-23 -41.5h-19z" />
    <glyph glyph-name="uni0312" unicode="&#x312;" 
d="M163 730l-17 -58h10l-12 -59h-26l13 59l18 58h14z" />
    <glyph glyph-name="uni031B" unicode="&#x31b;" 
d="M109 537l4 20q26 0 49.5 6t35.5 17q10 9 16.5 24t11.5 37h22q-5 -18 -9 -31t-10 -22.5t-17 -20.5q-10 -9 -26.5 -16t-36.5 -10.5t-40 -3.5z" />
    <glyph glyph-name="dotbelowcomb" unicode="&#x323;" 
d="M-32 -127l16 77h20l-16 -77h-20z" />
    <glyph glyph-name="uni0324" unicode="&#x324;" 
d="M-32 -127l16 77h17l-17 -77h-16zM63 -127l16 77h16l-16 -77h-16z" />
    <glyph glyph-name="uni0326" unicode="&#x326;" 
d="M-41 -167l22 58h-9l13 59h25l-12 -59l-25 -58h-14z" />
    <glyph glyph-name="uni0328" unicode="&#x328;" 
d="M-27 -113q0 30 22 59t64 66h4l5 -12q-44 -37 -61 -60.5t-17 -45.5q0 -14 10 -23.5t34 -17.5l-13 -17q-25 7 -36.5 20t-11.5 31z" />
    <glyph glyph-name="uni032E" unicode="&#x32e;" 
d="M31 -119q-24 0 -38 23t-7 54h16q-5 -22 5 -41t28 -19q17 0 34.5 17.5t24.5 42.5h15q-4 -20 -16.5 -38t-28.5 -28.5t-33 -10.5z" />
    <glyph glyph-name="uni0331" unicode="&#x331;" 
d="M-25 -95l4 20h255l-4 -20h-255z" />
    <glyph glyph-name="uni0335" unicode="&#x335;" 
d="M59 299l4 20h185l-4 -20h-185z" />
    <glyph glyph-name="uni0394" unicode="&#x394;" horiz-adv-x="616" 
d="M-24 0v20l291 690h18l290 -690v-20h-599zM-2 20h555l-277 661z" />
    <glyph glyph-name="uni03A9" unicode="&#x3a9;" horiz-adv-x="819" 
d="M63 0v21h219q-67 30 -115 83t-73.5 120.5t-25.5 140.5q0 69 24.5 132t69 112t105 77.5t132.5 28.5t132.5 -28.5t105 -77.5t69 -112t24.5 -132q0 -73 -25.5 -140.5t-73.5 -120.5t-115 -83h219v-21h-289v21q65 13 114 47.5t82 83t50 104t17 109.5q0 61 -21.5 119.5
t-61.5 105.5t-97.5 75t-129.5 28t-129.5 -28t-97.5 -75t-61.5 -105.5t-21.5 -119.5q0 -54 17 -109.5t50 -104t82.5 -83t113.5 -47.5v-21h-289z" />
    <glyph glyph-name="uni03BC" unicode="&#x3bc;" horiz-adv-x="557" 
d="M-28 -212l155 731h21l-62 -291q-6 -28 -9 -52.5t-3 -44.5q0 -121 104 -121q48 0 96 23t89.5 63.5t66.5 92.5l70 330h21l-102 -479q-1 -1 -1 -3v-4q0 -13 12 -13l-5 -20q-14 0 -20.5 8.5t-6.5 21.5v5t1 5q5 23 10.5 46.5t9.5 45.5q-31 -43 -71.5 -75t-85 -49.5
t-88.5 -17.5q-52 0 -81 26t-36 78l-65 -306h-20z" />
    <glyph glyph-name="pi" unicode="&#x3c0;" horiz-adv-x="622" 
d="M479 -5q-35 0 -57 22.5t-22 59.5v422h-246v-499h-20v499h-80v20h476v-20h-110v-422q0 -29 18 -46t48 -17q11 0 26.5 2.5t28.5 6.5l7 -16q-13 -4 -34 -8t-35 -4z" />
    <glyph glyph-name="uni0400" unicode="&#x400;" horiz-adv-x="588" 
d="M184 710h434l-4 -20h-414l-68 -317h363l-4 -20h-363l-71 -333h423l-4 -20h-443zM328 921h32l44 -74l-16 -11z" />
    <glyph glyph-name="uni0401" unicode="&#x401;" horiz-adv-x="588" 
d="M184 710h434l-4 -20h-414l-68 -317h363l-4 -20h-363l-71 -333h423l-4 -20h-443zM353 844l16 77h20l-16 -77h-20zM464 844l16 77h20l-16 -77h-20z" />
    <glyph glyph-name="uni0402" unicode="&#x402;" horiz-adv-x="713" 
d="M145 0l145 690h-192l5 20h490l-5 -20h-278l-145 -690h-20zM395 -6q-16 0 -32 1.5t-33 4.5l3 19q17 -3 33 -4.5t31 -1.5q87 0 142.5 48t71.5 145q12 69 -6.5 114.5t-59.5 68.5t-97 23q-47 0 -102.5 -16.5t-111.5 -48.5l3 21q59 32 113.5 48t101.5 16q62 0 107 -26
t65 -76.5t7 -123.5q-19 -111 -82.5 -161.5t-153.5 -50.5z" />
    <glyph glyph-name="uni0403" unicode="&#x403;" horiz-adv-x="492" 
d="M34 0l150 710h379l-4 -20h-359l-146 -690h-20zM405 836l-13 12l76 73h33z" />
    <glyph glyph-name="uni0404" unicode="&#x404;" horiz-adv-x="719" 
d="M68 353l3 20h385l-3 -20h-385zM337 -6q-72 0 -128 31.5t-92.5 84t-51.5 118t-6 132.5q9 64 40 126.5t81.5 114t117 82.5t146.5 31q95 0 154.5 -43.5t82.5 -111.5l-20 -6q-20 52 -55.5 83t-79 44.5t-89.5 13.5q-74 0 -136 -29t-109 -78t-76 -108.5t-38 -121.5
q-9 -68 6.5 -129.5t51.5 -109.5t89 -76t119 -28q47 0 98.5 16t99 49t81.5 85l19 -5q-33 -54 -84 -91t-109 -55.5t-112 -18.5z" />
    <glyph glyph-name="uni0405" unicode="&#x405;" horiz-adv-x="579" 
d="M244 -5q-84 0 -140.5 26.5t-104.5 83.5l16 13q21 -25 44.5 -44.5t51.5 -33t61.5 -20.5t75.5 -7q75 0 131 22t87 64t31 100q0 47 -21 73t-63.5 42t-107.5 32q-64 16 -108.5 30.5t-67.5 41t-23 78.5q0 49 19.5 89t55.5 69t86 45t111 16q45 0 80.5 -9t63 -28t48.5 -48
l-16 -14q-16 22 -34 37.5t-39.5 25t-46 13.5t-54.5 4q-82 0 -138.5 -27t-85.5 -72t-29 -99q0 -43 19.5 -66t59.5 -37t103 -30q71 -18 117.5 -35.5t69 -46.5t22.5 -82q0 -52 -20.5 -91t-57.5 -64.5t-87 -38t-109 -12.5z" />
    <glyph glyph-name="uni0406" unicode="&#x406;" horiz-adv-x="214" 
d="M184 709h20l-151 -709h-20z" />
    <glyph glyph-name="uni0407" unicode="&#x407;" horiz-adv-x="214" 
d="M184 709h20l-151 -709h-20zM156 841l16 77h20l-16 -77h-20zM267 841l16 77h20l-16 -77h-20z" />
    <glyph glyph-name="uni0408" unicode="&#x408;" horiz-adv-x="458" 
d="M110 -11q-49 0 -81.5 12t-60.5 32l14 16q23 -18 55.5 -30t76.5 -12q60 0 100 24t66.5 68.5t45 107.5t35.5 142l77 360h20l-77 -360q-18 -85 -37.5 -151.5t-48 -113t-73 -71t-112.5 -24.5z" />
    <glyph glyph-name="uni0409" unicode="&#x409;" horiz-adv-x="1026" 
d="M-15 1l4 20q41 0 78 23.5t72 79t69.5 152t68.5 243.5l45 191h369l-62 -292h133q76 0 120 -27t59 -74t4 -108q-9 -55 -41.5 -102.5t-85.5 -77t-127 -29.5h-170l146 690h-330l-40 -171q-35 -151 -71 -251.5t-74 -159t-79 -83t-88 -24.5zM545 20h150q68 0 116 27.5t77 71
t37 90.5q9 49 -0.5 92t-48 70t-117.5 27h-134z" />
    <glyph glyph-name="uni040A" unicode="&#x40a;" horiz-adv-x="1002" 
d="M34 0l150 710h20l-68 -322h423l68 322h20l-68 -322h154q76 0 120.5 -24.5t60 -67t5.5 -97.5q-9 -52 -40.5 -97.5t-84.5 -73.5t-127 -28h-190l78 368h-423l-78 -368h-20zM501 20h170q71 0 119 26t75 67t34 86q8 44 -2.5 82.5t-49.5 62.5t-118 24h-154z" />
    <glyph glyph-name="uni040B" unicode="&#x40b;" horiz-adv-x="719" 
d="M144 0l146 690h-192l4 20h490l-4 -20h-278l-146 -690h-20zM564 0l46 220q20 98 -19 142t-140 44q-38 0 -79 -6.5t-76.5 -17t-59.5 -24.5l2 23q50 22 103.5 33.5t105.5 11.5q77 0 122 -21.5t60.5 -66.5t0.5 -116l-46 -222h-20z" />
    <glyph glyph-name="uni040C" unicode="&#x40c;" horiz-adv-x="601" 
d="M34 0l150 710h20l-71 -337h135l327 337h28l-335 -345l223 -365h-25l-216 353h-141l-75 -353h-20zM385 836l-13 12l76 73h33z" />
    <glyph glyph-name="uni040D" unicode="&#x40d;" horiz-adv-x="719" 
d="M34 0l150 710h20l-144 -680l630 680h19l-151 -710h-20l143 670l-622 -670h-25zM384 921h32l44 -74l-16 -11z" />
    <glyph glyph-name="uni040E" unicode="&#x40e;" horiz-adv-x="560" 
d="M92 0l4 20h55q53 0 83.5 31.5t52.5 72.5l17 32l-208 554h22l199 -530l290 530h24l-325 -595q-18 -32 -39.5 -58.5t-50 -41.5t-68.5 -15h-56zM428 839q-69 0 -97 23t-23 54h19q-4 -22 19.5 -41t74.5 -19q65 0 98.5 16.5t38.5 43.5h18q-3 -20 -21 -38t-49.5 -28.5
t-77.5 -10.5z" />
    <glyph glyph-name="uni040F" unicode="&#x40f;" horiz-adv-x="684" 
d="M240 -136l28 136h-234l150 710h20l-145 -690h449l145 690h20l-150 -710h-235l-28 -136h-20z" />
    <glyph glyph-name="uni0410" unicode="&#x410;" horiz-adv-x="647" 
d="M406 710h18l142 -710h-22l-51 254h-351l-159 -254h-22zM489 274l-80 407l-255 -407h335z" />
    <glyph glyph-name="uni0411" unicode="&#x411;" horiz-adv-x="650" 
d="M34 0l150 710h449l-4 -20h-429l-64 -302h265q76 0 120.5 -24.5t60 -67t5.5 -97.5q-9 -52 -40.5 -97.5t-84.5 -73.5t-127 -28h-301zM58 20h281q71 0 119 26t75 67t34 86q8 44 -2.5 82.5t-49.5 62.5t-118 24h-265z" />
    <glyph glyph-name="uni0412" unicode="&#x412;" horiz-adv-x="628" 
d="M184 710h299q40 0 66.5 -21t40 -54t13.5 -70q0 -43 -18 -83t-49 -70.5t-70 -47.5q44 -15 68 -55.5t24 -90.5q0 -43 -18 -82t-49 -69.5t-68.5 -48.5t-76.5 -18h-313zM350 20q35 0 68.5 16.5t60 45t42.5 63t16 70.5t-13.5 66t-38 48.5t-59.5 18.5h-299l-70 -328h293z
M404 368q35 0 67 17t57.5 45t40 62.5t14.5 69.5q0 52 -27.5 90t-77.5 38h-278l-69 -322h273z" />
    <glyph glyph-name="uni0413" unicode="&#x413;" horiz-adv-x="492" 
d="M34 0l150 710h379l-4 -20h-359l-146 -690h-20z" />
    <glyph glyph-name="uni0414" unicode="&#x414;" horiz-adv-x="757" 
d="M-29 -136l33 156h24q44 0 84 50.5t79.5 166.5t80.5 312l34 161h400l-146 -690h81l-33 -156h-20l28 136h-597l-28 -136h-20zM86 20h454l142 670h-360l-39 -187q-34 -159 -67.5 -257.5t-66 -151.5t-63.5 -74z" />
    <glyph glyph-name="uni0415" unicode="&#x415;" horiz-adv-x="588" 
d="M184 710h434l-4 -20h-414l-68 -317h363l-4 -20h-363l-71 -333h423l-4 -20h-443z" />
    <glyph glyph-name="uni0416" unicode="&#x416;" horiz-adv-x="926" 
d="M-24 0l343 365l-203 345h25l198 -337h124l71 337h20l-71 -337h122l318 337h25l-325 -345l213 -365h-26l-206 353h-125l-75 -353h-20l75 353h-126l-331 -353h-26z" />
    <glyph glyph-name="uni0417" unicode="&#x417;" horiz-adv-x="511" 
d="M194 -10q-62 0 -108 28.5t-66 79.5l20 10q18 -46 59 -72t98 -26q58 0 104.5 21.5t77.5 61.5t39 93q12 76 -28 125.5t-120 49.5h-56l3 20h57q40 0 76 21.5t61 57.5t32 80q8 46 -7.5 82t-48.5 57t-79 21q-49 0 -92.5 -24.5t-72.5 -68.5l-17 8q33 50 81.5 77.5t103.5 27.5
q52 0 89 -23.5t54.5 -64t8.5 -92.5q-9 -57 -45 -102t-86 -65q61 -17 89 -68t17 -119q-9 -59 -41 -103t-83.5 -68.5t-119.5 -24.5z" />
    <glyph glyph-name="uni0418" unicode="&#x418;" horiz-adv-x="719" 
d="M34 0l150 710h20l-144 -680l630 680h19l-151 -710h-20l143 670l-622 -670h-25z" />
    <glyph glyph-name="uni0419" unicode="&#x419;" horiz-adv-x="719" 
d="M34 0l150 710h20l-144 -680l630 680h19l-151 -710h-20l143 670l-622 -670h-25zM468 839q-69 0 -97 23t-23 54h19q-4 -22 19.5 -41t74.5 -19q65 0 98.5 16.5t38.5 43.5h18q-3 -20 -21 -38t-49.5 -28.5t-77.5 -10.5z" />
    <glyph glyph-name="uni041A" unicode="&#x41a;" horiz-adv-x="601" 
d="M34 0l150 710h20l-71 -337h135l327 337h28l-335 -345l223 -365h-25l-216 353h-141l-75 -353h-20z" />
    <glyph glyph-name="uni041B" unicode="&#x41b;" horiz-adv-x="732" 
d="M-15 1l4 20q41 0 78 23.5t71.5 79t69 152t69.5 243.5l45 191h399l-150 -710h-20l146 690h-360l-40 -171q-36 -151 -72 -251.5t-73.5 -159t-78.5 -83t-88 -24.5z" />
    <glyph glyph-name="uni041C" unicode="&#x41c;" horiz-adv-x="846" 
d="M184 710h16l194 -546l426 546h16l-151 -710h-20l141 666l-409 -526h-16l-186 526l-142 -666h-20z" />
    <glyph glyph-name="uni041D" unicode="&#x41d;" horiz-adv-x="701" 
d="M184 710h20l-72 -337h467l72 337h20l-151 -710h-20l75 353h-467l-75 -353h-20z" />
    <glyph glyph-name="uni041E" unicode="&#x41e;" horiz-adv-x="754" 
d="M338 -5q-73 0 -129.5 30.5t-93.5 81.5t-52 115.5t-5 132.5q10 71 44.5 135.5t86.5 115t116.5 80t134.5 29.5q74 0 130 -29.5t92.5 -80.5t51 -115.5t5.5 -134.5q-10 -75 -44.5 -140.5t-86.5 -115t-116 -77t-134 -27.5zM341 15q69 0 130.5 29t109.5 78t78.5 109.5
t39.5 123.5q10 70 -5 131.5t-50.5 108.5t-88 73.5t-118.5 26.5q-69 0 -130.5 -29t-109.5 -78t-79 -109.5t-40 -123.5q-9 -66 5.5 -127t49.5 -109t88 -76t120 -28z" />
    <glyph glyph-name="uni041F" unicode="&#x41f;" horiz-adv-x="701" 
d="M34 0l150 710h506l-150 -710h-20l146 690h-466l-146 -690h-20z" />
    <glyph glyph-name="uni0420" unicode="&#x420;" horiz-adv-x="595" 
d="M184 710h268q50 0 85 -25.5t53 -65.5t18 -85q0 -46 -18.5 -91.5t-51 -82.5t-75 -59t-89.5 -22h-262l-59 -279h-20zM378 299q44 0 82.5 21.5t67 56.5t44.5 76.5t16 82.5t-16.5 76t-46.5 56.5t-71 21.5h-254l-83 -391h261z" />
    <glyph glyph-name="uni0421" unicode="&#x421;" horiz-adv-x="707" 
d="M337 -6q-72 0 -128 31.5t-92.5 84t-51.5 118t-6 132.5q9 64 40 126.5t81.5 114t117 82.5t146.5 31q95 0 154.5 -43.5t82.5 -111.5l-20 -6q-20 52 -55.5 83t-79 44.5t-89.5 13.5q-74 0 -136 -29t-109 -78t-76 -108.5t-38 -121.5q-9 -68 6.5 -129.5t51.5 -109.5t89 -76
t119 -28q47 0 98.5 16t99 49t81.5 85l19 -5q-33 -54 -84 -91t-109 -55.5t-112 -18.5z" />
    <glyph glyph-name="uni0422" unicode="&#x422;" horiz-adv-x="574" 
d="M356 690h-258l4 20h536l-4 -20h-258l-147 -690h-20z" />
    <glyph glyph-name="uni0423" unicode="&#x423;" horiz-adv-x="560" 
d="M92 0l4 20h55q53 0 83.5 31.5t52.5 72.5l17 32l-208 554h22l199 -530l290 530h24l-325 -595q-18 -32 -39.5 -58.5t-50 -41.5t-68.5 -15h-56z" />
    <glyph glyph-name="uni0424" unicode="&#x424;" horiz-adv-x="791" 
d="M347 71q-71 1 -128.5 22t-97 60.5t-55.5 96t-4 127.5q14 74 51 131t92 96.5t124 59.5t145 20v-20q-101 1 -184 -33t-137.5 -98.5t-70.5 -155.5q-15 -93 17.5 -156t98.5 -95.5t149 -34.5v-20zM323 0l16 74l2 7l124 593l1 7l13 59h20l-12 -58l-2 -8l-126 -595l-1 -6
l-15 -73h-20zM355 71v20q99 -1 181.5 33.5t137 99t68.5 153.5q15 94 -17.5 157t-97.5 95.5t-148 34.5v20q70 -1 127 -22t96 -61t55.5 -96t4.5 -128t-48.5 -128.5t-91 -96.5t-123 -61t-144.5 -20z" />
    <glyph glyph-name="uni0425" unicode="&#x425;" horiz-adv-x="588" 
d="M292 350l-196 360h26l186 -344l333 344h25l-349 -360l190 -350h-25l-180 334l-323 -334h-26z" />
    <glyph glyph-name="uni0426" unicode="&#x426;" horiz-adv-x="724" 
d="M555 -135l28 135h-549l150 710h20l-146 -690h449l146 690h20l-146 -690h80l-32 -155h-20z" />
    <glyph glyph-name="uni0427" unicode="&#x427;" horiz-adv-x="647" 
d="M616 710h20l-150 -710h-20l69 326q-51 -20 -104.5 -31t-107.5 -11q-80 0 -128 21.5t-64.5 66.5t-1.5 116l47 222h20l-46 -220q-20 -98 21.5 -142t147.5 -44q40 0 81.5 6t78 16.5t61.5 23.5z" />
    <glyph glyph-name="uni0428" unicode="&#x428;" horiz-adv-x="895" 
d="M34 0l150 710h20l-146 -690h320l146 690h20l-146 -690h320l146 690h20l-150 -710h-700z" />
    <glyph glyph-name="uni0429" unicode="&#x429;" horiz-adv-x="935" 
d="M766 -136l28 136h-760l150 710h20l-145 -690h320l145 690h20l-145 -690h320l145 690h20l-146 -690h81l-33 -156h-20z" />
    <glyph glyph-name="uni042A" unicode="&#x42a;" horiz-adv-x="711" 
d="M163 0l146 690h-211l4 20h231l-62 -292h203q76 0 120 -27t59 -74t4 -108q-9 -55 -41.5 -102.5t-85.5 -77t-127 -29.5h-240zM187 20h220q71 0 119.5 27.5t75.5 71t35 90.5q9 49 -0.5 92t-48 70t-117.5 27h-204z" />
    <glyph glyph-name="uni042B" unicode="&#x42b;" horiz-adv-x="743" 
d="M34 0l150 710h20l-62 -292h153q76 0 120 -27t59 -74t4 -108q-9 -55 -41.5 -102.5t-85.5 -77t-127 -29.5h-190zM58 20h170q71 0 119 27.5t75.5 71t35.5 90.5q9 49 -0.5 92t-48 70t-117.5 27h-154zM713 709h20l-151 -709h-20z" />
    <glyph glyph-name="uni042C" unicode="&#x42c;" horiz-adv-x="589" 
d="M34 0l150 710h20l-62 -292h183q76 0 120 -27t59 -74t4 -108q-9 -55 -41.5 -102.5t-85.5 -77t-127 -29.5h-220zM58 20h200q71 0 119 27.5t75.5 71t35.5 90.5q9 49 -0.5 92t-48 70t-117.5 27h-184z" />
    <glyph glyph-name="uni042D" unicode="&#x42d;" horiz-adv-x="708" 
d="M299 -6q-56 0 -108 19t-89.5 56t-52.5 90l19 5q18 -52 53.5 -85t81.5 -49t94 -16q69 0 129 28t107 76t78.5 110t43.5 130q14 102 -9.5 177.5t-81 117t-145.5 41.5q-70 0 -141 -31.5t-124 -109.5l-18 6q43 68 115 111.5t169 43.5q82 0 136 -31t84 -82.5t38 -114t-3 -126.5
q-12 -67 -43.5 -132.5t-81 -118t-113 -84t-138.5 -31.5zM269 353l3 20h389l-2 -20h-390z" />
    <glyph glyph-name="uni042E" unicode="&#x42e;" horiz-adv-x="983" 
d="M34 0l150 710h20l-73 -345h173l-4 -20h-173l-73 -345h-20zM567 -5q-73 0 -129.5 30.5t-93.5 81.5t-52 115.5t-5 132.5q10 71 44.5 135.5t86.5 115t116.5 80t134.5 29.5q74 0 130 -29.5t92.5 -80.5t51 -115.5t5.5 -134.5q-10 -75 -44.5 -140.5t-86.5 -115t-116 -77
t-134 -27.5zM570 15q69 0 130.5 29t109.5 78t78.5 109.5t39.5 123.5q10 70 -5 131.5t-50.5 108.5t-88 73.5t-118.5 26.5q-69 0 -130.5 -29t-109.5 -78t-79 -109.5t-40 -123.5q-9 -66 5.5 -127t49.5 -109t88 -76t120 -28z" />
    <glyph glyph-name="uni042F" unicode="&#x42f;" horiz-adv-x="610" 
d="M25 0l257 313q-82 14 -117 70t-22 132q11 59 46 103t91 68t128 24h191l-150 -710h-20l65 309h-164h-13.5t-12.5 1l-253 -310h-26zM333 329h166l76 361h-171q-96 0 -161 -46t-80 -129q-9 -50 6 -92.5t55.5 -68t108.5 -25.5z" />
    <glyph glyph-name="uni0430" unicode="&#x430;" horiz-adv-x="580" 
d="M216 -10q-57 0 -98.5 31.5t-64 82t-22.5 106.5q0 60 24 116.5t65 102t93 72t108 26.5q70 0 113.5 -38.5t62.5 -90.5l26 121h21l-102 -475q-1 -2 -1.5 -5.5t-0.5 -6.5q0 -12 12 -12l-4 -20h-4.5t-4.5 1q-10 3 -14.5 10t-4.5 18q0 3 1 8t4 20.5t10 50.5q-42 -52 -101 -85
t-118 -33zM218 10q32 0 68.5 13t70 35t58 51t33.5 60l40 187q-5 40 -27.5 74t-59 55.5t-83.5 21.5q-52 0 -100 -26.5t-85.5 -69.5t-59.5 -95.5t-22 -105.5t22 -98.5t59.5 -73.5t85.5 -28z" />
    <glyph glyph-name="uni0431" unicode="&#x431;" horiz-adv-x="573" 
d="M251 -10q-108 0 -151.5 76t-21.5 201q24 142 62 230.5t94 135.5t135 64q43 9 83 14.5t70.5 16.5t43.5 38l17 -7q-10 -30 -43.5 -44t-78.5 -20.5t-92 -17.5q-70 -16 -118.5 -55.5t-80.5 -106.5t-55 -168q36 68 95 104t129 36q72 0 115.5 -31.5t59 -87.5t3.5 -130
q-12 -77 -47.5 -132.5t-90.5 -85.5t-128 -30zM255 10q100 0 162.5 62.5t79.5 165.5q16 101 -24 165t-138 64q-57 0 -107.5 -28t-85.5 -79.5t-48 -121.5q-11 -59 3 -111.5t53.5 -84.5t104.5 -32z" />
    <glyph glyph-name="uni0432" unicode="&#x432;" horiz-adv-x="533" 
d="M249 -9q-113 1 -155.5 76.5t-11.5 226.5q16 75 51.5 127.5t88.5 80t120 27.5t105 -30.5t38 -84.5q0 -49 -31.5 -83t-90 -51.5t-139.5 -17.5q-31 0 -66 2.5t-73 8.5l4 17q39 -6 75 -8.5t68 -2.5q73 2 125 18t80 46t28 71q0 45 -32 70t-91 25q-62 0 -111 -25.5t-81.5 -74
t-47.5 -119.5q-30 -142 7.5 -209.5t141.5 -69.5q53 0 96 15.5t68.5 47t25.5 76.5q0 35 -17.5 60.5t-53.5 39.5t-94 14l1 13q41 1 72 -5t52 -17.5t34.5 -27.5t19.5 -35.5t6 -41.5q0 -51 -28.5 -86.5t-76.5 -54t-107 -18.5z" />
    <glyph glyph-name="uni0433" unicode="&#x433;" horiz-adv-x="471" 
d="M217 -10q-56 0 -94 16t-55 46.5t-12 72.5q7 52 46 83.5t127 59.5q58 21 91.5 39t49.5 40t19 53q5 53 -24 81t-89 28q-50 0 -90 -17.5t-64 -49.5l-16 12q26 36 70.5 55.5t99.5 19.5q69 0 104 -34.5t29 -96.5q-7 -59 -52 -90t-125 -60q-55 -17 -88 -34.5t-48.5 -39
t-19.5 -51.5q-7 -55 29 -84t112 -29q53 0 98 18.5t76 52.5l14 -14q-34 -37 -82.5 -57t-105.5 -20z" />
    <glyph glyph-name="uni0434" unicode="&#x434;" horiz-adv-x="578" 
d="M238 -10q-63 0 -110 36t-69.5 95t-13.5 129q7 49 32.5 93t64 77.5t84.5 52.5t95 19t89.5 -21t67.5 -56.5t35 -81.5q23 140 3.5 219t-75.5 116q-40 29 -100.5 38t-137.5 7v20q79 3 141.5 -7t105.5 -39q47 -29 71.5 -81.5t24.5 -136.5q0 -50 -9.5 -112t-28.5 -139
q-16 -63 -56 -114.5t-95.5 -82.5t-118.5 -31zM240 10q45 0 87.5 20t78 54t59 77t30.5 90q9 60 -12.5 110.5t-64.5 80.5t-100 30q-59 0 -114 -30.5t-92.5 -81t-47.5 -111.5q-8 -65 12.5 -119.5t63.5 -87t100 -32.5z" />
    <glyph glyph-name="uni0435" unicode="&#x435;" horiz-adv-x="538" 
d="M241 -10q-59 0 -102.5 30t-67.5 80t-26 110q-2 59 18.5 115.5t60 102t94 72.5t118.5 27q34 0 70 -15.5t61 -46t26 -75.5q3 -70 -61 -106t-196 -36q-41 0 -85.5 1.5t-101.5 5.5l19 19q52 -3 92.5 -4.5t78.5 -1.5q89 0 140.5 15.5t73 43.5t19.5 64q-1 41 -23.5 66.5
t-54.5 37.5t-62 12q-57 0 -106.5 -26t-86 -69t-56 -95.5t-17.5 -105.5q2 -54 23 -100t61.5 -73.5t97.5 -27.5q27 0 55.5 8.5t55.5 23.5t48.5 37t35.5 49l19 -6q-16 -30 -39.5 -54.5t-53 -41.5t-62 -26.5t-66.5 -9.5z" />
    <glyph glyph-name="uni0436" unicode="&#x436;" horiz-adv-x="746" 
d="M-10 0q62 87 121.5 157.5t133.5 108.5l-133 253h22l129 -243l89 -1l52 244h20l-52 -244h97q44 24 80 58t72.5 80t78.5 106h25q-61 -86 -115.5 -150.5t-115.5 -102.5l152 -266h-25l-146 256h-107l-54 -256h-20l54 256h-77q-53 -24 -95 -61t-80 -86t-81 -109h-25z" />
    <glyph glyph-name="uni0437" unicode="&#x437;" horiz-adv-x="450" 
d="M173 -5q-63 0 -106 26.5t-57 73.5l19 8q13 -42 51.5 -65t96.5 -23q72 0 122.5 35t60.5 94q10 53 -18.5 86.5t-87.5 34.5h-72l3 20h78q24 0 47.5 15t41 40.5t22.5 55.5q9 50 -19.5 80t-91.5 30q-49 0 -87.5 -21t-63.5 -61l-17 8q29 45 73 69.5t99 24.5q45 0 76 -16
t44.5 -45t6.5 -69t-31 -71.5t-56 -47.5q43 -14 62.5 -49.5t10.5 -83.5q-8 -45 -37 -78.5t-72.5 -52t-97.5 -18.5z" />
    <glyph glyph-name="uni0438" unicode="&#x438;" horiz-adv-x="551" 
d="M167 -10q-120 0 -120 139q0 22 3 46.5t9 52.5l62 291h20l-62 -291q-12 -55 -12 -97q0 -121 105 -121q48 0 96 23t89.5 63.5t66.5 92.5l70 330h20l-96 -452q-2 -11 -4.5 -21t-2.5 -12q0 -14 13 -14l-5 -20q-4 0 -7 0.5t-5 1.5q-7 3 -11 10t-4 17q0 2 1 7.5t5 26.5t14 69
q-46 -65 -112 -103.5t-133 -38.5z" />
    <glyph glyph-name="uni0439" unicode="&#x439;" horiz-adv-x="551" 
d="M167 -10q-120 0 -120 139q0 22 3 46.5t9 52.5l62 291h20l-62 -291q-12 -55 -12 -97q0 -121 105 -121q48 0 96 23t89.5 63.5t66.5 92.5l70 330h20l-96 -452q-2 -11 -4.5 -21t-2.5 -12q0 -14 13 -14l-5 -20q-4 0 -7 0.5t-5 1.5q-7 3 -11 10t-4 17q0 2 1 7.5t5 26.5t14 69
q-46 -65 -112 -103.5t-133 -38.5zM321 621q-39 0 -61.5 8.5t-30.5 22.5t-6 30h17q-3 -16 14.5 -30.5t68.5 -14.5q50 0 70 13t29 32h16q-2 -16 -15 -30t-38 -22.5t-64 -8.5z" />
    <glyph glyph-name="uni043A" unicode="&#x43a;" horiz-adv-x="462" 
d="M25 0l110 519h20l-52 -244h97q65 36 119.5 100t111.5 144h25q-61 -88 -115.5 -151.5t-115.5 -101.5l152 -266h-25l-146 256h-107l-54 -256h-20z" />
    <glyph glyph-name="uni043B" unicode="&#x43b;" horiz-adv-x="512" 
d="M0 0q47 131 124.5 263.5t201.5 255.5h18l83 -519h-21l-78 491q-57 -55 -104.5 -118t-86 -127.5t-68 -127t-49.5 -118.5h-20z" />
    <glyph glyph-name="uni043C" unicode="&#x43c;" horiz-adv-x="659" 
d="M25 0l110 519h20l146 -400l310 400h23l-110 -519h-20l102 485l-301 -392h-15l-142 394l-103 -487h-20z" />
    <glyph glyph-name="uni043D" unicode="&#x43d;" horiz-adv-x="560" 
d="M25 0l110 519h20l-52 -244h360l52 244h20l-110 -519h-20l54 256h-360l-54 -256h-20z" />
    <glyph glyph-name="uni043E" unicode="&#x43e;" horiz-adv-x="592" 
d="M255 -10q-68 0 -119 37t-75.5 98t-14.5 133q8 55 34 103.5t65.5 86t87.5 58.5t98 21q67 0 118 -37t76 -98t15 -134q-7 -54 -32.5 -102.5t-64 -86t-87 -58.5t-101.5 -21zM257 10q47 0 91 20.5t80.5 55.5t60.5 80t31 93q10 67 -13.5 123.5t-70 90.5t-108.5 34
q-46 0 -90 -20t-80 -54.5t-60.5 -80t-31.5 -96.5q-9 -67 13.5 -123t69 -89.5t108.5 -33.5z" />
    <glyph glyph-name="uni043F" unicode="&#x43f;" horiz-adv-x="544" 
d="M25 0l110 519h384l-110 -519h-20l106 500h-344l-106 -500h-20z" />
    <glyph glyph-name="uni0440" unicode="&#x440;" horiz-adv-x="577" 
d="M128 519h19l-23 -110q42 52 102 85t116 33q59 0 100.5 -31.5t63.5 -82t22 -107.5q0 -59 -23 -115.5t-63 -101.5t-93 -72t-113 -27q-65 0 -109 38.5t-64 90.5l-71 -332h-20zM240 10q55 0 103.5 26t85.5 69t58 95t21 104q0 54 -21 100.5t-59.5 74.5t-90.5 28
q-28 0 -63.5 -13t-69.5 -35.5t-59 -51t-34 -59.5l-40 -187q9 -42 32.5 -76t58.5 -54.5t78 -20.5z" />
    <glyph glyph-name="uni0441" unicode="&#x441;" horiz-adv-x="514" 
d="M219 -10q-56 0 -98.5 29.5t-66 79.5t-23.5 111q0 65 25 122t67.5 101t96.5 69t112 25q62 0 105 -30.5t56 -85.5l-22 -7q-13 48 -49.5 75.5t-86.5 27.5q-54 0 -105 -23.5t-91 -64t-64 -93.5t-24 -112q0 -56 21.5 -102.5t59.5 -74t88 -27.5q39 0 79 15.5t72.5 40.5t45.5 53
l19 -6q-18 -35 -53 -63t-78 -44t-86 -16z" />
    <glyph glyph-name="uni0442" unicode="&#x442;" horiz-adv-x="866" 
d="M127 519h20l-28 -134q47 68 105 105t116 37q41 0 68.5 -18.5t40.5 -53.5t8 -85q25 51 63 86t82 53t86 18q38 0 63 -14.5t37.5 -43.5t12.5 -73q0 -22 -3 -49t-10 -58l-61 -289h-20l61 289q12 59 12 101q0 59 -24 88t-74 29q-45 0 -89 -22.5t-80.5 -63t-61.5 -94.5
l-69 -327h-20l61 289q7 31 10 57t3 47q0 58 -23.5 86t-73.5 28q-69 0 -131.5 -49.5t-100.5 -129.5l-70 -328h-20z" />
    <glyph glyph-name="uni0443" unicode="&#x443;" horiz-adv-x="446" 
d="M-37 -207q41 8 66.5 24t48 44.5t52.5 75.5l41 63l-119 519h22l112 -494l58 92q47 75 79.5 130.5t55 100t38 85.5t28.5 86h21q-13 -48 -28.5 -90t-38 -87t-56.5 -102.5t-84 -136.5l-82 -129q-36 -56 -62 -92.5t-48.5 -58t-46.5 -32t-55 -15.5z" />
    <glyph glyph-name="uni0444" unicode="&#x444;" horiz-adv-x="655" 
d="M209 -213l45 213h-19q-73 0 -122.5 35.5t-70 94t-8.5 128.5q13 71 55 129.5t104 94t134 35.5h37l45 213h20l-45 -213h19q72 0 121.5 -35.5t71 -94t8.5 -129.5q-12 -70 -54 -128.5t-103.5 -94t-135.5 -35.5h-37l-45 -213h-20zM239 20h19l102 477h-37q-66 0 -123 -33
t-95.5 -87.5t-50.5 -120.5q-11 -64 8 -118t64.5 -86t112.5 -32zM278 20h37q68 0 124.5 32t95 86t49.5 118q12 66 -7.5 120.5t-65 87.5t-112.5 33h-19z" />
    <glyph glyph-name="uni0445" unicode="&#x445;" horiz-adv-x="456" 
d="M206 258l-142 261h26l127 -234l5 -12l8 8l229 238h26l-253 -261l141 -258h-26l-126 232l-5 12l-10 -10l-224 -234h-26z" />
    <glyph glyph-name="uni0446" unicode="&#x446;" horiz-adv-x="581" 
d="M431 -117l25 117q-36 0 -48 14t-9 43.5t13 74.5q-46 -65 -112 -103.5t-133 -38.5q-59 0 -89.5 35t-30.5 104q0 22 3 46.5t9 52.5l62 291h20l-62 -291q-6 -28 -9 -52.5t-3 -44.5q0 -61 26.5 -91t78.5 -30q48 0 96 23t89.5 63.5t66.5 92.5l70 330h20l-87 -409
q-8 -39 -9.5 -58.5t9 -26t35.5 -6.5h17l-28 -136h-20z" />
    <glyph glyph-name="uni0447" unicode="&#x447;" horiz-adv-x="479" 
d="M323 0l51 239q-37 -16 -75.5 -24.5t-79.5 -8.5q-89 0 -125 44t-17 138l31 131h22l-31 -129q-18 -87 12.5 -126t106.5 -39q44 0 89.5 10.5t70.5 25.5l55 258h21l-110 -519h-21z" />
    <glyph glyph-name="uni0448" unicode="&#x448;" horiz-adv-x="866" 
d="M739 0h-20l28 134q-46 -67 -104 -104.5t-117 -37.5q-40 0 -68 18.5t-40.5 54t-8.5 84.5q-25 -51 -63 -86t-81.5 -53t-86.5 -18q-38 0 -63 14.5t-37.5 43.5t-12.5 73q0 22 3 49t10 58l61 289h20l-61 -289q-12 -58 -12 -101q0 -59 24.5 -88t73.5 -29q46 0 89.5 22.5
t80 63.5t61.5 94l69 327h20l-61 -289q-7 -31 -10 -57t-3 -47q0 -58 24 -86t73 -28q69 0 131.5 49.5t100.5 129.5l70 328h20z" />
    <glyph glyph-name="uni0449" unicode="&#x449;" horiz-adv-x="898" 
d="M748 -117l25 117q-33 0 -46 11.5t-11 40.5t13 82q-51 -74 -103 -108t-118 -34q-49 0 -75 21.5t-35 57t-7 78.5q-25 -51 -63 -86t-81.5 -53t-86.5 -18q-38 0 -63 14.5t-37.5 43.5t-12.5 73q0 22 3 49t10 58l61 289h20l-61 -289q-12 -58 -12 -101q0 -59 24.5 -88t73.5 -29
q46 0 89.5 22.5t80 63.5t61.5 94l69 327h20l-61 -289q-7 -31 -10 -57t-3 -47q0 -58 24 -86t73 -28q69 0 131.5 49.5t100.5 129.5l70 328h20l-86 -408q-8 -39 -9.5 -58.5t8 -26.5t33.5 -7h19l-28 -136h-20z" />
    <glyph glyph-name="uni044A" unicode="&#x44a;" horiz-adv-x="540" 
d="M277 -6q-58 0 -93.5 17.5t-52 48.5t-16.5 71q0 52 23 114.5t62.5 128t88.5 126.5h-228l4 19h263q-38 -44 -71 -92t-58 -95h53h53q97 0 141 -45.5t33 -123.5q-7 -52 -32.5 -90t-68 -58.5t-101.5 -20.5zM280 14q77 0 124 39.5t56 109.5q9 71 -29 110t-131 39h-56h-56
q-23 -48 -36.5 -92.5t-13.5 -82.5q0 -62 33 -92.5t109 -30.5z" />
    <glyph glyph-name="uni044B" unicode="&#x44b;" horiz-adv-x="602" 
d="M193 -6q-56 0 -92 23t-48.5 69.5t1.5 115.5q17 80 34.5 159t34.5 158h20q-17 -79 -34.5 -158t-34.5 -159q-19 -98 15 -143t107 -45q68 0 109.5 39.5t50.5 109.5q8 71 -26.5 110t-121.5 39h-119l4 20h118q46 0 79 -11.5t54 -34t28.5 -53.5t2.5 -70q-6 -52 -29.5 -90
t-61.5 -58.5t-91 -20.5zM557 519h20l-110 -519h-20z" />
    <glyph glyph-name="uni044C" unicode="&#x44c;" horiz-adv-x="466" 
d="M203 -6q-54 0 -93 23t-55 69.5t-1 115.5q17 80 34.5 159t34.5 158h20q-17 -79 -34.5 -158t-34.5 -159q-14 -65 0.5 -107t49.5 -61.5t82 -19.5q77 0 123.5 39.5t56.5 109.5q9 71 -28 110t-130 39h-139l4 20h138q48 0 83.5 -11.5t57.5 -34t30.5 -53.5t2.5 -70
q-7 -52 -32.5 -90t-68 -58.5t-101.5 -20.5z" />
    <glyph glyph-name="uni044D" unicode="&#x44d;" horiz-adv-x="568" 
d="M223 -9q-41 0 -80.5 14t-68.5 41.5t-40 66.5l19 7q20 -57 69 -83.5t101 -26.5q48 0 93.5 20.5t83 55.5t63 80.5t34.5 94.5q11 74 -10 129.5t-66 86t-108 30.5q-49 0 -102.5 -23t-94.5 -80l-17 7q34 51 88.5 83.5t125.5 32.5q60 0 102.5 -23t68 -61.5t34 -85t0.5 -94.5
q-9 -50 -35.5 -98.5t-66.5 -87.5t-89.5 -62.5t-103.5 -23.5zM211 256l4 19h289l-3 -19h-290z" />
    <glyph glyph-name="uni044E" unicode="&#x44e;" horiz-adv-x="772" 
d="M25 0l110 519h20l-53 -250h135l-3 -19h-136l-53 -250h-20zM435 -10q-68 0 -119 37t-75.5 98t-14.5 133q8 55 34 103.5t65.5 86t87.5 58.5t98 21q67 0 118 -37t76 -98t15 -134q-7 -54 -32.5 -102.5t-64 -86t-87 -58.5t-101.5 -21zM437 10q47 0 91 20.5t80.5 55.5t60.5 80
t31 93q10 67 -13.5 123.5t-70 90.5t-108.5 34q-46 0 -90 -20t-80 -54.5t-60.5 -80t-31.5 -96.5q-9 -67 13.5 -123t69 -89.5t108.5 -33.5z" />
    <glyph glyph-name="uni044F" unicode="&#x44f;" horiz-adv-x="517" 
d="M15 0l212 220q-62 6 -95 45.5t-20 106.5q8 42 33 75.5t68.5 52.5t105.5 19q47 0 82 -10t54 -19.5l19 -9.5l-103 -480h-20l46 218h-145l-210 -218h-27zM252 237h149l50 232l-17 8t-47.5 15.5t-71.5 7.5q-79 0 -125.5 -36.5t-56.5 -91.5q-12 -55 15.5 -95t103.5 -40z" />
    <glyph glyph-name="uni0450" unicode="&#x450;" horiz-adv-x="538" 
d="M241 -10q-59 0 -102.5 30t-67.5 80t-26 110q-2 59 18.5 115.5t60 102t94 72.5t118.5 27q34 0 70 -15.5t61 -46t26 -75.5q3 -70 -61 -106t-196 -36q-41 0 -85.5 1.5t-101.5 5.5l19 19q52 -3 92.5 -4.5t78.5 -1.5q89 0 140.5 15.5t73 43.5t19.5 64q-1 41 -23.5 66.5
t-54.5 37.5t-62 12q-57 0 -106.5 -26t-86 -69t-56 -95.5t-17.5 -105.5q2 -54 23 -100t61.5 -73.5t97.5 -27.5q27 0 55.5 8.5t55.5 23.5t48.5 37t35.5 49l19 -6q-16 -30 -39.5 -54.5t-53 -41.5t-62 -26.5t-66.5 -9.5zM266 730h32l44 -74l-16 -11z" />
    <glyph glyph-name="uni0451" unicode="&#x451;" horiz-adv-x="538" 
d="M241 -10q-59 0 -102.5 30t-67.5 80t-26 110q-2 59 18.5 115.5t60 102t94 72.5t118.5 27q34 0 70 -15.5t61 -46t26 -75.5q3 -70 -61 -106t-196 -36q-41 0 -85.5 1.5t-101.5 5.5l19 19q52 -3 92.5 -4.5t78.5 -1.5q89 0 140.5 15.5t73 43.5t19.5 64q-1 41 -23.5 66.5
t-54.5 37.5t-62 12q-57 0 -106.5 -26t-86 -69t-56 -95.5t-17.5 -105.5q2 -54 23 -100t61.5 -73.5t97.5 -27.5q27 0 55.5 8.5t55.5 23.5t48.5 37t35.5 49l19 -6q-16 -30 -39.5 -54.5t-53 -41.5t-62 -26.5t-66.5 -9.5zM291 653l16 77h20l-16 -77h-20zM402 653l16 77h20
l-16 -77h-20z" />
    <glyph glyph-name="uni0452" unicode="&#x452;" horiz-adv-x="574" 
d="M17 0l141 573h-81l4 20h82l34 137h20l-34 -137h238l-4 -20h-239l-141 -573h-20zM221 -144q-13 0 -26 2t-26.5 6.5t-27 12t-27.5 17.5l18 12q16 -11 31 -18t30 -10.5t29 -3.5q42 0 79 23.5t67.5 64t53.5 91.5t36 105q23 93 19 155t-36.5 93t-97.5 31q-79 0 -139 -43
t-102 -118l11 51q47 65 105 97.5t129 32.5q110 0 137 -74t-4 -214q-14 -63 -39 -119.5t-58.5 -100t-74.5 -68.5t-87 -25z" />
    <glyph glyph-name="uni0453" unicode="&#x453;" horiz-adv-x="471" 
d="M217 -10q-56 0 -94 16t-55 46.5t-12 72.5q7 52 46 83.5t127 59.5q58 21 91.5 39t49.5 40t19 53q5 53 -24 81t-89 28q-50 0 -90 -17.5t-64 -49.5l-16 12q26 36 70.5 55.5t99.5 19.5q69 0 104 -34.5t29 -96.5q-7 -59 -52 -90t-125 -60q-55 -17 -88 -34.5t-48.5 -39
t-19.5 -51.5q-7 -55 29 -84t112 -29q53 0 98 18.5t76 52.5l14 -14q-34 -37 -82.5 -57t-105.5 -20zM290 645l-13 12l76 73h33z" />
    <glyph glyph-name="uni0454" unicode="&#x454;" horiz-adv-x="543" 
d="M236 -9q-52 0 -91 23.5t-64 62.5t-34 87.5t0 98.5q8 48 32 94.5t61.5 85t86.5 61.5t107 23q68 0 107.5 -32.5t56.5 -83.5l-19 -7q-22 57 -63 80t-88 23q-62 0 -116.5 -31.5t-92.5 -86.5t-53 -127q-11 -67 8.5 -124.5t63 -92.5t104.5 -35q50 0 105.5 26.5t92.5 83.5l17 -7
q-24 -39 -61 -66.5t-79 -41.5t-81 -14zM60 256l4 19h290l-4 -19h-290z" />
    <glyph glyph-name="uni0455" unicode="&#x455;" horiz-adv-x="450" 
d="M159 -10q-56 0 -99.5 20.5t-71.5 63.5l17 13q30 -39 68 -58t90 -19q55 0 98.5 18t69 50.5t25.5 76.5t-39 64t-109 38q-43 11 -73.5 22t-46.5 28.5t-16 48.5q0 58 29 96t77 56.5t103 18.5q60 0 97.5 -21.5t47.5 -53.5l-19 -8q-11 31 -49 47t-85 16q-41 0 -83 -15
t-69.5 -46.5t-27.5 -83.5q0 -38 30.5 -53.5t89.5 -31.5q50 -13 86.5 -26t57 -33.5t20.5 -55.5q0 -56 -28.5 -94.5t-77.5 -58t-112 -19.5z" />
    <glyph glyph-name="uni0456" unicode="&#x456;" horiz-adv-x="182" 
d="M127 519h20l-110 -519h-20zM172 730h20l-16 -77h-20z" />
    <glyph glyph-name="uni0457" unicode="&#x457;" horiz-adv-x="182" 
d="M127 519h20l-110 -519h-20zM101 653l16 77h20l-16 -77h-20zM212 653l16 77h20l-16 -77h-20z" />
    <glyph glyph-name="uni0458" unicode="&#x458;" horiz-adv-x="190" 
d="M-118 -170q-28 0 -51 7.5t-37 26.5l18 12q14 -16 34 -21t39 -5q26 0 54 15t49.5 41t28.5 58l118 555h20l-118 -555q-8 -39 -34 -69t-58.5 -47.5t-62.5 -17.5zM180 730h20l-16 -77h-20z" />
    <glyph glyph-name="uni0459" unicode="&#x459;" horiz-adv-x="701" 
d="M481 -6q-58 0 -85.5 23t-39 69.5t-22.5 115.5l-46 289q-49 -55 -90.5 -118t-74.5 -127.5t-58.5 -127t-43.5 -118.5h-21q41 131 109 263.5t177 255.5h18l51 -317q11 -65 21 -107t34 -61.5t75 -19.5q47 0 83 31t43 78q11 74 -21.5 111t-117.5 37q-35 0 -70.5 -2t-70.5 -4
l5 20l70 4t70 2q60 0 98 -19.5t52.5 -59t3.5 -99.5q-6 -33 -25.5 -60t-50.5 -43t-73 -16z" />
    <glyph glyph-name="uni045A" unicode="&#x45a;" horiz-adv-x="784" 
d="M535 -6q-54 0 -92.5 23t-54 69.5t-1.5 115.5l15 70h-299l-58 -272h-20l110 519h20l-48 -228h299l48 228h20l-67 -317q-14 -65 0.5 -107t49 -61.5t81.5 -19.5q69 0 110.5 31.5t48.5 87.5q8 67 -26.5 102.5t-118.5 35.5h-139l4 20h138q45 0 78 -10.5t53.5 -31t28.5 -50
t2 -66.5q-6 -43 -29.5 -74t-61.5 -48t-91 -17z" />
    <glyph glyph-name="uni045B" unicode="&#x45b;" horiz-adv-x="578" 
d="M30 0l121 573h-74l4 20h74l29 137h20l-29 -137h246l-4 -20h-246l-121 -573h-20zM419 0l51 249q19 92 -8 140t-113 48q-80 0 -141.5 -40t-99.5 -114l7 46q43 62 102.5 95t133.5 33q94 0 127 -53.5t12 -154.5l-51 -249h-20z" />
    <glyph glyph-name="uni045C" unicode="&#x45c;" horiz-adv-x="462" 
d="M25 0l110 519h20l-52 -244h97q65 36 119.5 100t111.5 144h25q-61 -88 -115.5 -151.5t-115.5 -101.5l152 -266h-25l-146 256h-107l-54 -256h-20zM288 645l-13 12l76 73h33z" />
    <glyph glyph-name="uni045D" unicode="&#x45d;" horiz-adv-x="551" 
d="M167 -10q-120 0 -120 139q0 22 3 46.5t9 52.5l62 291h20l-62 -291q-12 -55 -12 -97q0 -121 105 -121q48 0 96 23t89.5 63.5t66.5 92.5l70 330h20l-96 -452q-2 -11 -4.5 -21t-2.5 -12q0 -14 13 -14l-5 -20q-4 0 -7 0.5t-5 1.5q-7 3 -11 10t-4 17q0 2 1 7.5t5 26.5t14 69
q-46 -65 -112 -103.5t-133 -38.5zM252 730h32l44 -74l-16 -11z" />
    <glyph glyph-name="uni045E" unicode="&#x45e;" horiz-adv-x="446" 
d="M-37 -207q41 8 66.5 24t48 44.5t52.5 75.5l41 63l-119 519h22l112 -494l58 92q47 75 79.5 130.5t55 100t38 85.5t28.5 86h21q-13 -48 -28.5 -90t-38 -87t-56.5 -102.5t-84 -136.5l-82 -129q-36 -56 -62 -92.5t-48.5 -58t-46.5 -32t-55 -15.5zM302 621q-39 0 -61.5 8.5
t-30.5 22.5t-6 30h17q-3 -16 14.5 -30.5t68.5 -14.5q50 0 70 13t29 32h16q-2 -16 -15 -30t-38 -22.5t-64 -8.5z" />
    <glyph glyph-name="uni045F" unicode="&#x45f;" horiz-adv-x="551" 
d="M167 -10q-120 0 -120 139q0 22 3 46.5t9 52.5l62 291h20l-62 -291q-12 -55 -12 -97q0 -121 105 -121q48 0 96 23t89.5 63.5t66.5 92.5l70 330h20l-96 -452q-2 -11 -4.5 -21t-2.5 -12q0 -14 13 -14l-5 -20q-4 0 -7 0.5t-5 1.5q-7 3 -11 10t-4 17q0 2 1 7.5t5 26.5t14 69
q-46 -65 -112 -103.5t-133 -38.5zM184 -127l16 77h20l-16 -77h-20z" />
    <glyph glyph-name="uni0462" unicode="&#x462;" horiz-adv-x="665" 
d="M401 418q76 0 120 -27t59 -74t4 -108q-9 -55 -41.5 -102.5t-85.5 -77t-127 -29.5h-220l118 557h-145l4 20h145l28 133h20l-28 -133h215l-4 -20h-215l-30 -139h183zM564 209q9 49 -0.5 92t-48 70t-117.5 27h-184l-80 -378h200q71 0 119 27.5t75.5 71t35.5 90.5z" />
    <glyph glyph-name="uni0463" unicode="&#x463;" horiz-adv-x="704" 
d="M464 -6q-48 0 -83 23.5t-47.5 70t4.5 114.5l22 87q32 115 16.5 166.5t-73.5 51.5q-52 0 -97 -28t-86 -89l-83 -390h-20l110 519h20l-19 -88q30 43 72.5 69.5t101.5 26.5q51 0 75.5 -26.5t24.5 -80t-23 -135.5l50 4t50 2q60 0 98 -19t53.5 -54t6.5 -85q-8 -43 -29 -74
t-56.5 -48t-87.5 -17zM468 14q62 0 100.5 33.5t48.5 95.5q9 59 -24 93.5t-118 34.5q-25 0 -50 -1.5t-51 -4.5l-16 -63q-16 -64 -4.5 -106t42.5 -62t72 -20z" />
    <glyph glyph-name="uni046A" unicode="&#x46a;" horiz-adv-x="926" 
d="M-24 0l343 365l-203 345h25l198 -337h266l318 337h25l-325 -345l213 -365h-26l-206 353h-125l-75 -353h-20l75 353h-126l-331 -353h-26zM133 690l4 20h789l-4 -20h-789z" />
    <glyph glyph-name="uni046B" unicode="&#x46b;" horiz-adv-x="679" 
d="M-25 0l260 266l-126 253h571l-234 -253l148 -266h-23l-143 256h-79l-54 -256h-20l54 256h-76l-252 -256h-26zM252 275h178l205 224h-495z" />
    <glyph glyph-name="uni0472" unicode="&#x472;" horiz-adv-x="726" 
d="M68 353l4 20h637l-4 -20h-637zM338 -5q-73 0 -129.5 30.5t-93.5 81.5t-52 115.5t-5 132.5q10 71 44.5 135.5t86.5 115t116.5 80t134.5 29.5q74 0 130 -29.5t92.5 -80.5t51 -115.5t5.5 -134.5q-10 -75 -44.5 -140.5t-86.5 -115t-116 -77t-134 -27.5zM341 15q69 0 130.5 29
t109.5 78t78.5 109.5t39.5 123.5q10 70 -5 131.5t-50.5 108.5t-88 73.5t-118.5 26.5q-69 0 -130.5 -29t-109.5 -78t-79 -109.5t-40 -123.5q-9 -66 5.5 -127t49.5 -109t88 -76t120 -28z" />
    <glyph glyph-name="uni0473" unicode="&#x473;" horiz-adv-x="580" 
d="M46 256l4 19h471l-4 -19h-471zM243 -10q-68 0 -119 37t-75.5 98t-14.5 133q8 55 34 103.5t65.5 86t87.5 58.5t98 21q67 0 118 -37t76 -98t15 -134q-7 -54 -32.5 -102.5t-64 -86t-87 -58.5t-101.5 -21zM245 10q47 0 91 20.5t80.5 55.5t60.5 80t31 93q10 67 -13.5 123.5
t-70 90.5t-108.5 34q-46 0 -90 -20t-80 -54.5t-60.5 -80t-31.5 -96.5q-9 -67 13.5 -123t69 -89.5t108.5 -33.5z" />
    <glyph glyph-name="uni0474" unicode="&#x474;" horiz-adv-x="663" 
d="M243 0l-142 710h21l137 -685l336 572q26 45 46.5 69.5t42 34t49.5 9.5h26l-4 -20h-26q-23 0 -41.5 -9.5t-37 -33t-43.5 -66.5l-342 -581h-22z" />
    <glyph glyph-name="uni0475" unicode="&#x475;" horiz-adv-x="490" 
d="M147 0l-83 519h21l77 -485q48 53 90 116.5t74.5 125.5t52.5 112q15 38 30 65t31 43.5t34 24.5t39 8v-20q-35 0 -61.5 -29t-54.5 -100q-21 -53 -57.5 -121t-84 -136t-100.5 -123h-8z" />
    <glyph glyph-name="uni048A" unicode="&#x48a;" horiz-adv-x="719" 
d="M34 0l150 710h20l-144 -680l630 680h19l-151 -710h-20l143 670l-622 -670h-25zM468 839q-69 0 -97 23t-23 54h19q-4 -22 19.5 -41t74.5 -19q65 0 98.5 16.5t38.5 43.5h18q-3 -20 -21 -38t-49.5 -28.5t-77.5 -10.5zM504 -159l102 168v-9h-68l4 20h90l-108 -179h-20z" />
    <glyph glyph-name="uni048B" unicode="&#x48b;" horiz-adv-x="551" 
d="M167 -10q-120 0 -120 139q0 22 3 46.5t9 52.5l62 291h20l-62 -291q-12 -55 -12 -97q0 -121 105 -121q48 0 96 23t89.5 63.5t66.5 92.5l70 330h20l-96 -452q-2 -11 -4.5 -21t-2.5 -12q0 -14 13 -14l-5 -20q-4 0 -7 0.5t-5 1.5q-7 3 -11 10t-4 17q0 2 1 7.5t5 26.5t14 69
q-46 -65 -112 -103.5t-133 -38.5zM321 621q-39 0 -61.5 8.5t-30.5 22.5t-6 30h17q-3 -16 14.5 -30.5t68.5 -14.5q50 0 70 13t29 32h16q-2 -16 -15 -30t-38 -22.5t-64 -8.5zM376 -159l102 168v-9h-68l4 19h90l-108 -178h-20z" />
    <glyph glyph-name="uni048C" unicode="&#x48c;" horiz-adv-x="647" 
d="M87 599l4 20h290l-4 -20h-290zM69 0l150 710h20l-62 -292h202q76 0 120.5 -27t60.5 -74t6 -108q-9 -55 -40 -102.5t-83.5 -77t-126.5 -29.5h-247zM93 20h226q66 0 114 27.5t77 71t36 90.5q8 49 -2.5 92t-49.5 70t-118 27h-203z" />
    <glyph glyph-name="uni048D" unicode="&#x48d;" horiz-adv-x="490" 
d="M69 499l4 20h275l-4 -20h-275zM55 0l154 730h20l-86 -409h148q83 0 116 -44t22 -113q-7 -44 -31 -81.5t-63 -60t-93 -22.5h-187zM79 20h166q51 0 85 20.5t53.5 53.5t25.5 70q6 36 -1.5 67.5t-35.5 50.5t-84 19h-149z" />
    <glyph glyph-name="uni048E" unicode="&#x48e;" horiz-adv-x="595" 
d="M387 405l16 11l128 -205l-16 -11zM184 710h268q50 0 85 -25.5t53 -65.5t18 -85q0 -46 -18.5 -91.5t-51 -82.5t-75 -59t-89.5 -22h-262l-59 -279h-20zM378 299q44 0 82.5 21.5t67 56.5t44.5 76.5t16 82.5t-16.5 76t-46.5 56.5t-71 21.5h-254l-83 -391h261z" />
    <glyph glyph-name="uni048F" unicode="&#x48f;" horiz-adv-x="571" 
d="M326 102l16 13l100 -148l-16 -13zM122 519h19l-23 -110q42 52 102 85t116 33q59 0 100.5 -31.5t63.5 -82t22 -107.5q0 -59 -23 -115.5t-63 -101.5t-93 -72t-113 -27q-65 0 -109 38.5t-64 90.5l-71 -332h-20zM234 10q55 0 103.5 26t85.5 69t58 95t21 104q0 54 -21 100.5
t-59.5 74.5t-90.5 28q-28 0 -63.5 -13t-69.5 -35.5t-59 -51t-34 -59.5l-40 -187q9 -42 32.5 -76t58.5 -54.5t78 -20.5z" />
    <glyph glyph-name="uni0490" unicode="&#x490;" horiz-adv-x="492" 
d="M34 0l150 710h359l28 135h20l-33 -155h-359l-145 -690h-20z" />
    <glyph glyph-name="uni0491" unicode="&#x491;" horiz-adv-x="423" 
d="M-36 -146q-27 0 -50 9.5t-33 24.5l18 12q9 -12 27.5 -19.5t40.5 -7.5q54 0 78.5 33t37.5 94l111 519h244l25 117h20l-29 -136h-244l-107 -500q-9 -41 -23 -74t-41 -52.5t-75 -19.5z" />
    <glyph glyph-name="uni0492" unicode="&#x492;" horiz-adv-x="516" 
d="M13 347v20h380v-20h-380zM58 0l150 710h379l-4 -20h-359l-146 -690h-20z" />
    <glyph glyph-name="uni0493" unicode="&#x493;" horiz-adv-x="409" 
d="M45 0l110 519h284l-4 -19h-264l-106 -500h-20zM14 229l4 20h290l-4 -20h-290z" />
    <glyph glyph-name="uni0494" unicode="&#x494;" horiz-adv-x="606" 
d="M278 -6q-16 0 -32 1.5t-33 4.5l3 19q17 -3 33 -4.5t31 -1.5q87 0 142 49t72 147q12 68 -6.5 113t-59.5 67.5t-97 22.5q-46 0 -99.5 -15.5t-109.5 -46.5l3 21q57 31 110.5 46t99.5 15q62 0 107 -26.5t65 -77t7 -124.5q-19 -110 -82.5 -160t-153.5 -50zM34 0l150 710h379
l-4 -20h-359l-146 -690h-20z" />
    <glyph glyph-name="uni0495" unicode="&#x495;" horiz-adv-x="483" 
d="M25 0l110 519h284l-4 -19h-264l-106 -500h-20zM142 -170q-25 0 -48 5.5t-38 18.5l11 16q19 -13 38 -16.5t35 -3.5q61 0 113.5 31t91 88.5t55.5 136.5q13 63 5 115.5t-44 84t-109 31.5q-46 0 -80.5 -13t-69.5 -38l4 24q34 23 68.5 35t80.5 12q61 0 98.5 -21t56 -57.5
t20.5 -82.5t-9 -97q-18 -84 -57.5 -144t-96 -92.5t-125.5 -32.5z" />
    <glyph glyph-name="uni0496" unicode="&#x496;" horiz-adv-x="969" 
d="M845 -135l28 135h-62l4 20h82l-32 -155h-20zM-24 0l343 365l-203 345h25l198 -337h124l71 337h20l-71 -337h122l318 337h25l-325 -345l213 -365h-26l-206 353h-125l-75 -353h-20l75 353h-126l-331 -353h-26z" />
    <glyph glyph-name="uni0497" unicode="&#x497;" horiz-adv-x="785" 
d="M635 -117l25 117h-38v19h61l-28 -136h-20zM-10 0q62 87 121.5 157.5t133.5 108.5l-133 253h22l129 -243l89 -1l52 244h20l-52 -244h97q44 24 80 58t72.5 80t78.5 106h25q-61 -86 -115.5 -150.5t-115.5 -102.5l152 -266h-25l-146 256h-107l-54 -256h-20l54 256h-77
q-53 -24 -95 -61t-80 -86t-81 -109h-25z" />
    <glyph glyph-name="uni0498" unicode="&#x498;" horiz-adv-x="511" 
d="M197 -135l29 143h20l-29 -143h-20zM194 -10q-62 0 -108 28.5t-66 79.5l20 10q18 -46 59 -72t98 -26q58 0 104.5 21.5t77.5 61.5t39 93q12 76 -28 125.5t-120 49.5h-56l3 20h57q40 0 76 21.5t61 57.5t32 80q8 46 -7.5 82t-48.5 57t-79 21q-49 0 -92.5 -24.5t-72.5 -68.5
l-17 8q33 50 81.5 77.5t103.5 27.5q52 0 89 -23.5t54.5 -64t8.5 -92.5q-9 -57 -45 -102t-86 -65q61 -17 89 -68t17 -119q-9 -59 -41 -103t-83.5 -68.5t-119.5 -24.5z" />
    <glyph glyph-name="uni0499" unicode="&#x499;" horiz-adv-x="420" 
d="M115 -117l26 122h19l-25 -122h-20zM173 -5q-63 0 -106 26.5t-57 73.5l19 8q13 -42 51.5 -65t96.5 -23q72 0 122.5 35t60.5 94q10 53 -18.5 86.5t-87.5 34.5h-72l3 20h78q24 0 47.5 15t41 40.5t22.5 55.5q9 50 -19.5 80t-91.5 30q-49 0 -87.5 -21t-63.5 -61l-17 8
q29 45 73 69.5t99 24.5q45 0 76 -16t44.5 -45t6.5 -69t-31 -71.5t-56 -47.5q43 -14 62.5 -49.5t10.5 -83.5q-8 -45 -37 -78.5t-72.5 -52t-97.5 -18.5z" />
    <glyph glyph-name="uni049A" unicode="&#x49a;" horiz-adv-x="644" 
d="M520 -135l28 135h-62l4 20h82l-32 -155h-20zM34 0l150 710h20l-71 -337h135l327 337h28l-335 -345l223 -365h-25l-216 353h-141l-75 -353h-20z" />
    <glyph glyph-name="uni049B" unicode="&#x49b;" horiz-adv-x="519" 
d="M369 -117l25 117h-38v19h61l-28 -136h-20zM25 0l110 519h20l-52 -244h97q65 36 119.5 100t111.5 144h25q-61 -88 -115.5 -151.5t-115.5 -101.5l152 -266h-25l-146 256h-107l-54 -256h-20z" />
    <glyph glyph-name="uni049C" unicode="&#x49c;" horiz-adv-x="601" 
d="M34 0l150 710h20l-71 -337h135l327 337h28l-335 -345l223 -365h-25l-216 353h-141l-75 -353h-20zM201 220l65 282h20l-65 -282h-20z" />
    <glyph glyph-name="uni049D" unicode="&#x49d;" horiz-adv-x="462" 
d="M25 0l110 519h20l-52 -244h97q65 36 119.5 100t111.5 144h25q-61 -88 -115.5 -151.5t-115.5 -101.5l152 -266h-25l-146 256h-107l-54 -256h-20zM153 136l52 248h20l-52 -248h-20z" />
    <glyph glyph-name="uni049E" unicode="&#x49e;" horiz-adv-x="608" 
d="M94 628l4 20h185l-4 -20h-185zM41 0l150 710h20l-71 -337h135l327 337h28l-335 -345l223 -365h-25l-216 353h-141l-75 -353h-20z" />
    <glyph glyph-name="uni049F" unicode="&#x49f;" horiz-adv-x="421" 
d="M11 0l155 730h20l-97 -455h97q65 36 119.5 100t111.5 144h25q-61 -88 -115.5 -151.5t-115.5 -101.5l152 -266h-25l-146 256h-107l-54 -256h-20zM64 599l4 20h215l-4 -20h-215z" />
    <glyph glyph-name="uni04A0" unicode="&#x4a0;" horiz-adv-x="680" 
d="M98 690l4 20h177l-4 -20h-177zM113 0l150 710h20l-71 -337h135l327 337h28l-335 -345l223 -365h-25l-216 353h-141l-75 -353h-20z" />
    <glyph glyph-name="uni04A1" unicode="&#x4a1;" horiz-adv-x="538" 
d="M61 499l4 20h160l-4 -20h-160zM101 0l110 519h20l-52 -244h97q65 36 119.5 100t111.5 144h25q-61 -88 -115.5 -151.5t-115.5 -101.5l152 -266h-25l-146 256h-107l-54 -256h-20z" />
    <glyph glyph-name="uni04A2" unicode="&#x4a2;" horiz-adv-x="701" 
d="M184 710h20l-72 -337h467l72 337h20l-151 -710h-20l75 353h-467l-75 -353h-20zM574 -135l28 135h-82l4 20h102l-32 -155h-20z" />
    <glyph glyph-name="uni04A3" unicode="&#x4a3;" horiz-adv-x="599" 
d="M25 0l110 519h20l-52 -244h360l52 244h20l-110 -519h-20l54 256h-360l-54 -256h-20zM449 -117l25 117h-69l4 19h88l-28 -136h-20z" />
    <glyph glyph-name="uni04A4" unicode="&#x4a4;" horiz-adv-x="979" 
d="M687 690l-16 20h379l-4 -20h-359zM184 710h20l-72 -337h467l72 337h20l-151 -710h-20l75 353h-467l-75 -353h-20z" />
    <glyph glyph-name="uni04A5" unicode="&#x4a5;" horiz-adv-x="769" 
d="M531 500l-16 19h284l-4 -19h-264zM25 0l110 519h20l-52 -244h360l52 244h20l-110 -519h-20l54 256h-360l-54 -256h-20z" />
    <glyph glyph-name="uni04A6" unicode="&#x4a6;" horiz-adv-x="1083" 
d="M34 0l150 710h486l-150 -710h-20l146 690h-446l-146 -690h-20zM739 -106q-32 0 -65 6l8 19q13 -3 28.5 -4.5t30.5 -1.5q87 0 142 55.5t73 167.5q19 118 -24 177t-139 59q-46 0 -99 -13t-107 -39l3 21q56 26 108.5 38.5t98.5 12.5q71 0 115 -29.5t60.5 -86.5t3.5 -140
q-20 -127 -83.5 -184.5t-153.5 -57.5z" />
    <glyph glyph-name="uni04A7" unicode="&#x4a7;" horiz-adv-x="834" 
d="M537 -170q-22 0 -46 5.5t-39 18.5l5 18q20 -13 40 -17.5t42 -4.5q50 0 90.5 27t69 72t40.5 98q15 64 2.5 113.5t-46.5 78t-84 28.5q-38 0 -77 -11t-79 -37l-46 -219h-20l106 500h-344l-106 -500h-20l110 519h384l-59 -277q30 20 72 32.5t88 12.5q53 0 90.5 -31t52 -85
t-1.5 -125q-12 -56 -42.5 -105.5t-76 -80t-105.5 -30.5z" />
    <glyph glyph-name="uni04A8" unicode="&#x4a8;" horiz-adv-x="1071" 
d="M985 109q-62 -54 -137 -86.5t-138 -32.5q-28 0 -59 4t-56 10q-32 -7 -66 -10.5t-70 -3.5q-99 0 -175 33.5t-126.5 92.5t-70.5 136t-6 163q11 66 37.5 120t67 93.5t93 61.5t113.5 24l-7 -22q-72 -1 -131.5 -35.5t-99 -96t-53.5 -145.5q-13 -82 6 -155t67 -129.5t121 -88.5
t167 -32q19 0 39.5 1t48.5 3q-74 26 -122 80t-67 127t-6 154q16 101 67.5 177t129.5 118.5t173 42.5q68 0 120 -24t85.5 -68.5t45.5 -105.5t0 -136q-14 -88 -59.5 -160.5t-118 -124.5t-167.5 -80q17 -4 34.5 -5.5t34.5 -1.5q68 0 137 29t136 87zM722 693q-89 0 -162.5 -39.5
t-121.5 -111t-63 -167.5q-13 -84 9 -157t73.5 -124.5t127.5 -73.5q68 15 130 46.5t112.5 77t84 105t44.5 130.5q15 95 -9.5 165.5t-82 109.5t-142.5 39z" />
    <glyph glyph-name="uni04A9" unicode="&#x4a9;" horiz-adv-x="771" 
d="M709 53q-41 -28 -89 -45.5t-98 -17.5q-22 0 -40.5 3t-38.5 8q-25 -5 -51.5 -8t-54.5 -3q-99 0 -166.5 35.5t-97 99.5t-15.5 151q7 46 26.5 87t49.5 74.5t70.5 56.5t89.5 33l-12 -20q-51 -11 -94 -44.5t-72 -81.5t-38 -105q-13 -81 15 -141t91.5 -92.5t156.5 -32.5
q12 0 23.5 0.5t22.5 1.5q-76 31 -109.5 100.5t-18.5 163.5q12 75 50.5 131.5t96.5 88t129 31.5q68 0 113.5 -31t65 -86.5t7.5 -130.5q-15 -95 -78.5 -165t-159.5 -102q10 -1 20.5 -1.5t22.5 -0.5q47 0 89.5 15t84.5 43zM531 507q-65 0 -118 -28.5t-88 -80.5t-46 -122
q-10 -64 4 -116.5t51 -88.5t95 -53q73 14 130.5 50t94.5 90t47 121q11 69 -6.5 120.5t-59.5 79.5t-104 28z" />
    <glyph glyph-name="uni04AA" unicode="&#x4aa;" horiz-adv-x="707" 
d="M290 -135l26 131q-70 8 -122.5 41t-85.5 84t-45.5 112.5t-3.5 126.5q9 64 40 126.5t81.5 114t117 82.5t146.5 31q95 0 154.5 -43.5t82.5 -111.5l-20 -6q-20 52 -55.5 83t-79 44.5t-89.5 13.5q-74 0 -136 -29t-109 -78t-76 -108.5t-38 -121.5q-9 -68 6.5 -129.5t52 -109.5
t89 -76t115.5 -28q49 0 101 16t99.5 49t81.5 85l19 -5q-34 -57 -85.5 -93.5t-109 -54t-111.5 -17.5l-26 -129h-20z" />
    <glyph glyph-name="uni04AB" unicode="&#x4ab;" horiz-adv-x="513" 
d="M178 -117l23 108q-51 5 -89.5 35t-60 78t-21.5 106q0 65 25 122t67.5 101t96.5 69t112 25q62 0 105 -30.5t56 -85.5l-22 -7q-13 48 -49.5 75.5t-86.5 27.5q-54 0 -105 -23.5t-91 -64t-64 -93.5t-24 -112q0 -56 21.5 -102.5t59.5 -74t88 -27.5q39 0 79 15.5t72.5 40.5
t45.5 53l19 -6q-18 -35 -53 -63t-77.5 -44t-84.5 -16l-22 -107h-20z" />
    <glyph glyph-name="uni04AC" unicode="&#x4ac;" horiz-adv-x="574" 
d="M356 690h-258l4 20h536l-4 -20h-258l-147 -690h-20zM263 -135l28 135h-82l4 20h102l-32 -155h-20z" />
    <glyph glyph-name="uni04AD" unicode="&#x4ad;" horiz-adv-x="866" 
d="M127 519h20l-28 -134q47 68 105 105t116 37q41 0 68.5 -18.5t40.5 -53.5t8 -85q25 51 63 86t82 53t86 18q38 0 63 -14.5t37.5 -43.5t12.5 -73q0 -22 -3 -49t-10 -58l-61 -289h-20l61 289q12 59 12 101q0 59 -24 88t-74 29q-45 0 -89 -22.5t-80.5 -63t-61.5 -94.5
l-69 -327h-20l61 289q7 31 10 57t3 47q0 58 -23.5 86t-73.5 28q-69 0 -131.5 -49.5t-100.5 -129.5l-70 -328h-20zM751 -117l25 117h-69l4 19h88l-28 -136h-20z" />
    <glyph glyph-name="Ustraitcy" unicode="&#x4ae;" horiz-adv-x="594" 
d="M277 277l-180 433h23l172 -412l348 412h23l-366 -435l-59 -275h-20z" />
    <glyph glyph-name="ustraitcy" unicode="&#x4af;" horiz-adv-x="451" 
d="M101 -213l46 213l-83 519h21l78 -491q50 56 91 118.5t74.5 127t59 127.5t43.5 118h20q-40 -130 -108 -262.5t-177 -254.5l-45 -215h-20z" />
    <glyph glyph-name="Ustraitstrokecy" unicode="&#x4b0;" horiz-adv-x="594" 
d="M142 241l4 20h266l-4 -20h-266zM277 277l-180 433h23l172 -412l348 412h23l-366 -435l-59 -275h-20z" />
    <glyph glyph-name="ustraitstrokecy" unicode="&#x4b1;" horiz-adv-x="451" 
d="M40 0l4 20h233l-4 -20h-233zM101 -213l46 213l-83 519h21l78 -491q50 56 91 118.5t74.5 127t59 127.5t43.5 118h20q-40 -130 -108 -262.5t-177 -254.5l-45 -215h-20z" />
    <glyph glyph-name="uni04B2" unicode="&#x4b2;" horiz-adv-x="707" 
d="M538 -135l28 135h-62l4 20h82l-32 -155h-20zM310 350l-196 360h26l186 -344l333 344h25l-349 -360l190 -350h-25l-180 334l-323 -334h-26z" />
    <glyph glyph-name="uni04B3" unicode="&#x4b3;" horiz-adv-x="508" 
d="M358 -117l25 117h-38v19h61l-28 -136h-20zM204 258l-142 261h26l127 -234l5 -12l8 8l229 238h26l-253 -261l141 -258h-26l-126 232l-5 12l-10 -10l-224 -234h-26z" />
    <glyph glyph-name="uni04B4" unicode="&#x4b4;" horiz-adv-x="852" 
d="M632 690h-282h-20h-232l4 20h534zM683 -135l29 135h-529l151 710h20l-147 -690h429l147 690h20l-147 -690h80l-33 -155h-20z" />
    <glyph glyph-name="uni04B5" unicode="&#x4b5;" horiz-adv-x="718" 
d="M304 500h-181l4 19h401l-4 -19h-200h-20zM568 -117l25 117h-396l111 519h20l-107 -500h307l107 500h20l-107 -500h69l-29 -136h-20z" />
    <glyph glyph-name="uni04B6" unicode="&#x4b6;" horiz-adv-x="647" 
d="M616 710h20l-150 -710h-20l69 326q-51 -20 -104.5 -31t-107.5 -11q-80 0 -128 21.5t-64.5 66.5t-1.5 116l47 222h20l-46 -220q-20 -98 21.5 -142t147.5 -44q40 0 81.5 6t78 16.5t61.5 23.5zM520 -135l28 135h-82l4 20h102l-32 -155h-20z" />
    <glyph glyph-name="uni04B7" unicode="&#x4b7;" horiz-adv-x="527" 
d="M323 0l51 239q-37 -16 -75.5 -24.5t-79.5 -8.5q-89 0 -125 44t-17 138l31 131h22l-31 -129q-18 -87 12.5 -126t106.5 -39q44 0 89.5 10.5t70.5 25.5l55 258h21l-110 -519h-21zM377 -117l25 117h-69l4 19h88l-28 -136h-20z" />
    <glyph glyph-name="uni04B8" unicode="&#x4b8;" horiz-adv-x="647" 
d="M616 710h20l-150 -710h-20l69 326q-51 -20 -104.5 -31t-107.5 -11q-80 0 -128 21.5t-64.5 66.5t-1.5 116l47 222h20l-46 -220q-20 -98 21.5 -142t147.5 -44q40 0 81.5 6t78 16.5t61.5 23.5zM280 153l65 282h20l-65 -282h-20z" />
    <glyph glyph-name="uni04B9" unicode="&#x4b9;" horiz-adv-x="479" 
d="M323 0l51 239q-37 -16 -75.5 -24.5t-79.5 -8.5q-89 0 -125 44t-17 138l31 131h22l-31 -129q-18 -87 12.5 -126t106.5 -39q44 0 89.5 10.5t70.5 25.5l55 258h21l-110 -519h-21zM197 106l52 248h20l-52 -248h-20z" />
    <glyph glyph-name="uni04BA" unicode="&#x4ba;" horiz-adv-x="647" 
d="M72 0h-20l150 710h20l-69 -326q51 20 104.5 31t107.5 11q120 0 168.5 -48.5t25.5 -155.5l-47 -222h-20l46 220q20 98 -21 142t-148 44q-39 0 -81 -6t-78.5 -16.5t-61.5 -23.5z" />
    <glyph glyph-name="uni04BB" unicode="&#x4bb;" horiz-adv-x="540" 
d="M172 730h20l-73 -345q44 65 108.5 103.5t128.5 38.5q39 0 65 -15.5t39.5 -46.5t13.5 -77q0 -21 -3 -46t-9 -53l-61 -289h-20l61 289q5 27 8.5 51t3.5 44q0 61 -26 92t-76 31q-46 0 -93.5 -23.5t-87.5 -64t-64 -91.5l-70 -328h-20z" />
    <glyph glyph-name="uni04BC" unicode="&#x4bc;" horiz-adv-x="823" 
d="M456 -5q-69 0 -125 29t-94.5 79.5t-54.5 115t-6 136.5q10 71 44.5 135.5t86.5 115t116.5 80t134.5 29.5q63 0 111 -29.5t79.5 -81t44 -116t4.5 -135.5h-22q11 94 -12 171.5t-76 124t-132 46.5q-69 0 -130 -29t-109 -78t-79 -109.5t-40 -123.5q-10 -70 5.5 -131.5
t52 -108.5t89 -73.5t115.5 -26.5q88 0 162.5 39.5t120.5 109.5l14 -12q-33 -49 -80 -84.5t-103 -54t-117 -18.5zM186 353q-40 0 -68 10t-42.5 28.5t-14.5 41.5q0 19 8 40.5t24 44.5l16 -8q-14 -21 -21 -37.5t-7 -36.5q0 -29 28 -46t80 -17h40l-3 -20h-40zM185 353l4 20h606
l-3 -20h-607z" />
    <glyph glyph-name="uni04BD" unicode="&#x4bd;" horiz-adv-x="615" 
d="M66 414l17 -12q-17 -19 -25.5 -36.5t-8.5 -36.5q0 -27 22 -40t68 -15l18 -1l-2 -19l-20 1q-54 2 -81 20t-27 55q0 27 12 47t27 37zM318 -10q-59 0 -102 30t-67 80t-27 110q-3 59 17 115.5t58.5 102t91 72.5t114.5 27q45 0 82 -15.5t60 -47t25 -79.5q3 -79 -61 -108
t-196 -29q-41 0 -84.5 1.5t-97.5 5.5l8 19q56 -3 97.5 -4.5t79.5 -1.5q89 0 140.5 12.5t73 38t19.5 64.5q-1 45 -24 72t-57 39.5t-69 12.5q-55 0 -102.5 -26t-82.5 -68t-53.5 -92.5t-17.5 -99.5q2 -60 23.5 -108t61.5 -75.5t97 -27.5q34 0 63.5 8.5t53.5 23.5t43 37t33 49
l21 -6q-16 -30 -37.5 -54.5t-49 -41.5t-61 -26.5t-73.5 -9.5z" />
    <glyph glyph-name="uni04BE" unicode="&#x4be;" horiz-adv-x="823" 
d="M377 -135l29 143h20l-29 -143h-20zM456 -5q-69 0 -125 29t-94.5 79.5t-54.5 115t-6 136.5q10 71 44.5 135.5t86.5 115t116.5 80t134.5 29.5q63 0 111 -29.5t79.5 -81t44 -116t4.5 -135.5h-22q11 94 -12 171.5t-76 124t-132 46.5q-69 0 -130 -29t-109 -78t-79 -109.5
t-40 -123.5q-10 -70 5.5 -131.5t52 -108.5t89 -73.5t115.5 -26.5q88 0 162.5 39.5t120.5 109.5l14 -12q-33 -49 -80 -84.5t-103 -54t-117 -18.5zM186 353q-40 0 -68 10t-42.5 28.5t-14.5 41.5q0 19 8 40.5t24 44.5l16 -8q-14 -21 -21 -37.5t-7 -36.5q0 -29 28 -46t80 -17h40
l-3 -20h-40zM185 353l4 20h606l-3 -20h-607z" />
    <glyph glyph-name="uni04BF" unicode="&#x4bf;" horiz-adv-x="625" 
d="M271 -117l25 117l19 1l-24 -118h-20zM76 414l17 -12q-17 -19 -25.5 -36.5t-8.5 -36.5q0 -27 22 -40t68 -15l18 -1l-2 -19l-20 1q-54 2 -81 20t-27 55q0 27 12 47t27 37zM328 -10q-59 0 -102 30t-67 80t-27 110q-3 59 17 115.5t58.5 102t91 72.5t114.5 27q45 0 82 -15.5
t60 -47t25 -79.5q3 -79 -61 -108t-196 -29q-41 0 -84.5 1.5t-97.5 5.5l8 19q56 -3 97.5 -4.5t79.5 -1.5q89 0 140.5 12.5t73 38t19.5 64.5q-1 45 -24 72t-57 39.5t-69 12.5q-55 0 -102.5 -26t-82.5 -68t-53.5 -92.5t-17.5 -99.5q2 -60 23.5 -108t61.5 -75.5t97 -27.5
q34 0 63.5 8.5t53.5 23.5t43 37t33 49l21 -6q-16 -30 -37.5 -54.5t-49 -41.5t-61 -26.5t-73.5 -9.5z" />
    <glyph glyph-name="uni04C0" unicode="&#x4c0;" horiz-adv-x="214" 
d="M184 709h20l-151 -709h-20z" />
    <glyph glyph-name="uni04C1" unicode="&#x4c1;" horiz-adv-x="926" 
d="M-24 0l343 365l-203 345h25l198 -337h124l71 337h20l-71 -337h122l318 337h25l-325 -345l213 -365h-26l-206 353h-125l-75 -353h-20l75 353h-126l-331 -353h-26zM562 839q-69 0 -97 23t-23 54h19q-4 -22 19.5 -41t74.5 -19q65 0 98.5 16.5t38.5 43.5h18q-3 -20 -21 -38
t-49.5 -28.5t-77.5 -10.5z" />
    <glyph glyph-name="uni04C2" unicode="&#x4c2;" horiz-adv-x="746" 
d="M-10 0q62 87 121.5 157.5t133.5 108.5l-133 253h22l129 -243l89 -1l52 244h20l-52 -244h97q44 24 80 58t72.5 80t78.5 106h25q-61 -86 -115.5 -150.5t-115.5 -102.5l152 -266h-25l-146 256h-107l-54 -256h-20l54 256h-77q-53 -24 -95 -61t-80 -86t-81 -109h-25zM420 621
q-39 0 -61.5 8.5t-30.5 22.5t-6 30h17q-3 -16 14.5 -30.5t68.5 -14.5q50 0 70 13t29 32h16q-2 -16 -15 -30t-38 -22.5t-64 -8.5z" />
    <glyph glyph-name="uni04C3" unicode="&#x4c3;" horiz-adv-x="567" 
d="M291 -192q-14 0 -28 2.5t-28 7.5l9 18q26 -8 50 -8q42 0 75.5 27.5t56 73.5t31.5 100q14 89 -11 162.5t-84.5 117t-148.5 43.5h-90l-75 -352h-20l151 710h20l-72 -337h90q19 0 37 -2t34 -6l318 345h29l-324 -352q65 -22 106 -71.5t56.5 -117.5t3.5 -146
q-9 -58 -34.5 -107t-64 -78.5t-87.5 -29.5z" />
    <glyph glyph-name="uni04C4" unicode="&#x4c4;" horiz-adv-x="434" 
d="M220 269q53 -13 90 -51t52.5 -93.5t4.5 -122.5q-7 -45 -25 -83.5t-46.5 -61.5t-65.5 -23q-13 0 -28 3.5t-29 11.5l8 18q27 -15 53 -15q29 0 52.5 22t39 56.5t21.5 71.5q12 72 -9 129.5t-67 91t-111 33.5h-61l-54 -256h-20l110 519h20l-51 -243h59q9 0 17.5 -0.5
t16.5 -1.5l219 245h27z" />
    <glyph glyph-name="uni04C5" unicode="&#x4c5;" horiz-adv-x="732" 
d="M-15 1l4 20q41 0 78 23.5t71.5 79t69 152t69.5 243.5l45 191h399l-150 -710h-20l146 690h-360l-40 -171q-36 -151 -72 -251.5t-73.5 -159t-78.5 -83t-88 -24.5zM517 -159l102 168v-9h-68l4 20h90l-108 -179h-20z" />
    <glyph glyph-name="uni04C6" unicode="&#x4c6;" horiz-adv-x="512" 
d="M0 0q47 131 124.5 263.5t201.5 255.5h18l83 -519h-21l-78 491q-57 -55 -104.5 -118t-86 -127.5t-68 -127t-49.5 -118.5h-20zM372 -159l102 168v-9h-68l4 19h90l-108 -178h-20z" />
    <glyph glyph-name="uni04C7" unicode="&#x4c7;" horiz-adv-x="701" 
d="M184 710h20l-72 -337h467l72 337h20l-151 -710h-20l75 353h-467l-75 -353h-20zM390 -186q-19 0 -35.5 4t-30.5 12l11 17q22 -15 53 -15q48 0 73 24t37 61.5t21 78.5l5 23h20l-5 -23q-10 -48 -25 -89.5t-43.5 -67t-80.5 -25.5z" />
    <glyph glyph-name="uni04C8" unicode="&#x4c8;" horiz-adv-x="560" 
d="M25 0l110 519h20l-52 -244h360l52 244h20l-110 -519h-20l54 256h-360l-54 -256h-20zM292 -166q-15 0 -31 3t-33 12l8 18q29 -14 57 -14q42 0 70.5 37.5t41.5 109.5l4 19h20l-5 -23q-16 -76 -47.5 -119t-84.5 -43z" />
    <glyph glyph-name="uni04C9" unicode="&#x4c9;" horiz-adv-x="701" 
d="M184 710h20l-72 -337h467l72 337h20l-151 -710h-20l75 353h-467l-75 -353h-20zM486 -159l102 168v-9h-68l4 20h90l-108 -179h-20z" />
    <glyph glyph-name="uni04CA" unicode="&#x4ca;" horiz-adv-x="560" 
d="M25 0l110 519h20l-52 -244h360l52 244h20l-110 -519h-20l54 256h-360l-54 -256h-20zM371 -159l102 168v-9h-68l4 19h90l-108 -178h-20z" />
    <glyph glyph-name="uni04CB" unicode="&#x4cb;" horiz-adv-x="647" 
d="M356 -135l32 155h102l-4 -20h-82l-28 -135h-20zM616 710h20l-150 -710h-20l69 326q-51 -20 -104.5 -31t-107.5 -11q-80 0 -128 21.5t-64.5 66.5t-1.5 116l47 222h20l-46 -220q-20 -98 21.5 -142t147.5 -44q40 0 81.5 6t78 16.5t61.5 23.5z" />
    <glyph glyph-name="uni04CC" unicode="&#x4cc;" horiz-adv-x="545" 
d="M274 -135l32 155h82l-4 -20h-62l-28 -135h-20zM353 0l51 239q-37 -16 -75.5 -24.5t-79.5 -8.5q-89 0 -125 44t-17 138l31 131h22l-31 -129q-18 -87 12.5 -126t106.5 -39q44 0 89.5 10.5t70.5 25.5l55 258h21l-110 -519h-21z" />
    <glyph glyph-name="uni04CD" unicode="&#x4cd;" horiz-adv-x="846" 
d="M184 710h16l194 -546l426 546h16l-151 -710h-20l141 666l-409 -526h-16l-186 526l-142 -666h-20zM631 -159l102 168v-9h-68l4 20h90l-108 -179h-20z" />
    <glyph glyph-name="uni04CE" unicode="&#x4ce;" horiz-adv-x="659" 
d="M25 0l110 519h20l146 -400l310 400h23l-110 -519h-20l102 485l-301 -392h-15l-142 394l-103 -487h-20zM470 -159l102 168v-9h-68l4 19h90l-108 -178h-20z" />
    <glyph glyph-name="uni04CF" unicode="&#x4cf;" horiz-adv-x="182" 
d="M127 519h20l-110 -519h-20z" />
    <glyph glyph-name="uni04D0" unicode="&#x4d0;" horiz-adv-x="647" 
d="M406 710h18l142 -710h-22l-51 254h-351l-159 -254h-22zM489 274l-80 407l-255 -407h335zM436 839q-69 0 -97 23t-23 54h19q-4 -22 19.5 -41t74.5 -19q65 0 98.5 16.5t38.5 43.5h18q-3 -20 -21 -38t-49.5 -28.5t-77.5 -10.5z" />
    </font>
</defs>
</svg>
