<?xml version="1.0" standalone="no"?>
<!DOCTYPE svg PUBLIC "-//W3C//DTD SVG 1.1//EN" "http://www.w3.org/Graphics/SVG/1.1/DTD/svg11.dtd" >
<svg xmlns="http://www.w3.org/2000/svg" xmlns:xlink="http://www.w3.org/1999/xlink" version="1.1">
<metadata>
Created by FontForge 20201107 at Wed Jul  8 16:02:29 2020
 By 
Copyright 2010 The Raleway Project Authors (impallari@gmail.com), with Reserved Font Name "Raleway".
</metadata>
<defs>
<font id="Raleway-BoldItalic" horiz-adv-x="0" >
  <font-face 
    font-family="Raleway"
    font-weight="700"
    font-style="italic"
    font-stretch="normal"
    units-per-em="1000"
    panose-1="0 0 0 0 0 0 0 0 0 0"
    ascent="800"
    descent="-200"
    x-height="524"
    cap-height="710"
    bbox="-240 -229 1340 1135"
    underline-thickness="50"
    underline-position="-125"
    slope="-12"
    unicode-range="U+000D-FB06"
  />
<missing-glyph horiz-adv-x="608" 
d="M558 29q0 -29 -33 -29h-448q-16 0 -21.5 6t-5.5 19v662q0 23 19 23h471q18 0 18 -21v-660zM506 74v568q0 18 -15 18h-373q-16 0 -16 -19v-570q0 -10 5 -15.5t18 -5.5h353q28 0 28 24zM478 28l-407 641l52 27l415 -663z" />
    <glyph glyph-name="f_f" unicode="ff" horiz-adv-x="621" 
d="M25 0l83 394h-64l22 102h64l3 13q13 55 42.5 99t73 70t96.5 26q33 0 62.5 -8t56.5 -21q29 30 65.5 47.5t81.5 17.5q24 0 43.5 -5t37.5 -12t34 -14l-48 -101q-12 7 -27.5 12.5t-35.5 5.5q-25 0 -43.5 -13t-30 -34t-17.5 -46l-8 -37h128l-21 -102h-128l-84 -394h-134
l84 394h-119l-83 -394h-134zM264 496h118q4 19 10.5 41t14.5 39q-13 8 -29 11t-30 3q-17 0 -30.5 -6t-23.5 -16t-16.5 -24.5t-10.5 -30.5z" />
    <glyph glyph-name="fi" unicode="fi" horiz-adv-x="552" 
d="M108 394h-64l22 102h64l7 32q9 44 31 82t55.5 67.5t75.5 46t89 16.5q36 0 66.5 -8t57 -23t50.5 -34l-74 -100q-21 23 -51.5 37t-63.5 14q-28 0 -48.5 -13t-34 -34t-18.5 -46l-8 -37h270l-106 -496h-134l83 394h-135l-83 -394h-134z" />
    <glyph glyph-name="fl" unicode="fl" horiz-adv-x="633" 
d="M446 -8q-53 0 -80.5 25.5t-27.5 63.5q0 8 1 15.5t3 18.5l86 402q3 13 4.5 25.5t1.5 21.5q0 27 -12.5 44.5t-47.5 17.5q-30 0 -51 -14t-34.5 -39.5t-20.5 -58.5l-4 -18h81l-21 -102h-82l-83 -394h-134l83 394h-64l22 102h64l10 44q14 65 49 109.5t87.5 67.5t117.5 23
q93 0 136.5 -39t43.5 -104q0 -12 -1.5 -25.5t-4.5 -27.5l-79 -373q-1 -5 -1.5 -9t-0.5 -9q0 -16 8 -28.5t26 -12.5q12 0 25.5 3.5t24 6.5l10.5 3l-7 -108q-1 -1 -21 -7t-48.5 -12t-58.5 -6z" />
    <glyph glyph-name="f_f_i" unicode="ffi" horiz-adv-x="804" 
d="M25 0l83 394h-64l22 102h64l3 13q12 53 42 97t73.5 71t96.5 27q33 0 62.5 -8t56.5 -21q32 30 76.5 47.5t98.5 17.5q32 0 62.5 -8t59 -22.5t53.5 -34.5l-74 -100q-19 22 -50 36.5t-62 14.5q-29 0 -50.5 -13t-34.5 -34t-19 -46l-8 -37h270l-105 -496h-135l84 394h-135
l-84 -394h-134l84 394h-119l-83 -394h-134zM264 496h118q4 19 10.5 41t14.5 39q-13 8 -29 11t-30 3q-23 0 -39.5 -10.5t-26.5 -28t-15 -38.5z" />
    <glyph glyph-name="f_f_l" unicode="ffl" horiz-adv-x="886" 
d="M699 -8q-53 0 -81 25.5t-28 63.5q0 9 1.5 17.5t4.5 19.5l86 403q2 11 3.5 22t1.5 20q0 27 -13.5 45t-49.5 18q-28 0 -49 -16t-34 -41.5t-20 -56.5l-4 -16h81l-22 -102h-81l-83 -394h-134l83 394h-119l-83 -394h-134l83 394h-64l22 102h64l3 13q13 54 43 98.5t74 70.5
t97 26q34 0 62 -8t55 -21q34 33 81 49t102 16q93 0 136.5 -39t43.5 -104q0 -12 -1.5 -25.5t-4.5 -27.5l-80 -373q-1 -4 -1.5 -8.5t-0.5 -9.5q0 -16 8 -28.5t27 -12.5q12 0 25.5 3.5t23.5 6.5t11 3l-7 -108q-1 -1 -21 -7t-49 -12t-58 -6zM264 496h119q5 20 10.5 42.5
t12.5 38.5q-13 8 -27.5 10.5t-27.5 2.5q-22 0 -39.5 -10.5t-29 -28t-15.5 -37.5z" />
    <glyph glyph-name=".notdef" horiz-adv-x="608" 
d="M558 29q0 -29 -33 -29h-448q-16 0 -21.5 6t-5.5 19v662q0 23 19 23h471q18 0 18 -21v-660zM506 74v568q0 18 -15 18h-373q-16 0 -16 -19v-570q0 -10 5 -15.5t18 -5.5h353q28 0 28 24zM478 28l-407 641l52 27l415 -663z" />
    <glyph glyph-name=".null" 
 />
    <glyph glyph-name="nonmarkingreturn" horiz-adv-x="333" 
 />
    <glyph glyph-name="NULL" 
 />
    <glyph glyph-name="NULL" 
 />
    <glyph glyph-name="CR" unicode="&#xd;" 
 />
    <glyph glyph-name="space" unicode=" " horiz-adv-x="236" 
 />
    <glyph glyph-name="exclam" unicode="!" horiz-adv-x="290" 
d="M71 267l95 450h134l-95 -450h-134zM14 0l32 151h134l-32 -151h-134z" />
    <glyph glyph-name="quotedbl" unicode="&#x22;" horiz-adv-x="387" 
d="M100 499l47 224h114l-47 -224h-114zM255 499l48 224h114l-48 -224h-114z" />
    <glyph glyph-name="numbersign" unicode="#" horiz-adv-x="692" 
d="M682 424h-139l-59 -137h124l-21 -100h-148l-83 -187h-107l83 187h-106l-83 -187h-108l83 187h-106l21 100h131l58 137h-115l21 94h138l85 192h107l-85 -192h106l85 192h108l-86 -192h117zM377 287l59 137h-106l-58 -137h105z" />
    <glyph glyph-name="dollar" unicode="$" horiz-adv-x="611" 
d="M228 64h60l-39 -181h-59zM241 80l116 547l43 11l-119 -560zM388 815h59l-35 -165l-61 -10zM533 524q-4 7 -19 19t-38 23t-51 19.5t-58 8.5q-39 0 -66 -12t-40.5 -33t-13.5 -50q0 -22 15.5 -37t44.5 -25.5t71 -23.5q53 -15 92.5 -36t61.5 -52.5t22 -80.5q0 -67 -25 -115
t-68 -78t-97 -44.5t-111 -14.5q-76 0 -145.5 24.5t-119.5 67.5l86 119q6 -9 24 -23.5t46.5 -29t63.5 -24.5t73 -10q60 0 89.5 23.5t29.5 62.5q0 27 -19.5 43t-53.5 28.5t-77 26.5q-50 16 -84.5 36t-52 48.5t-17.5 68.5q0 62 24.5 111t67.5 82.5t96.5 51t112.5 17.5
q48 0 88.5 -11t73.5 -29t58 -39z" />
    <glyph glyph-name="percent" unicode="%" horiz-adv-x="760" 
d="M219 417q-58 0 -94 36.5t-36 89.5q0 48 28 88.5t72 64.5t94 24q58 0 93.5 -36.5t35.5 -89.5q0 -48 -27.5 -88t-71.5 -64.5t-94 -24.5zM233 484q21 0 40.5 15t32 38.5t12.5 49.5q0 28 -13.5 47t-35.5 19q-20 0 -40 -14.5t-32.5 -38t-12.5 -50.5q0 -28 13.5 -47t35.5 -19z
M500 -10q-58 0 -93.5 36.5t-35.5 89.5q0 48 28 88t72 64.5t93 24.5q59 0 94 -36.5t35 -89.5q0 -48 -27.5 -88.5t-71.5 -64.5t-94 -24zM515 57q21 0 40 14.5t31.5 38t12.5 50.5q0 28 -13.5 47t-35.5 19q-20 0 -40 -14.5t-33 -38t-13 -50.5q0 -28 14 -47t37 -19zM39 47
l337 329l319 342l49 -54l-329 -324l-327 -347z" />
    <glyph glyph-name="ampersand" unicode="&#x26;" horiz-adv-x="697" 
d="M196 -10q-58 0 -98.5 23.5t-61.5 63.5t-21 87q0 50 20.5 88.5t55 69t76.5 56.5t86 52l60 -86q-56 -28 -93 -53t-56 -51.5t-19 -60.5q0 -42 25 -64t61 -22q40 0 81 23t77.5 66t63 102.5t38.5 131.5h111q-20 -101 -62.5 -180t-99.5 -133.5t-120 -83.5t-124 -29zM205 354
q-25 36 -40.5 65t-23 54t-7.5 49q0 57 31 101.5t82 70t109 25.5q40 0 74.5 -14t60 -42.5t37.5 -70.5l-93 -52q-11 38 -36 59t-55 21q-22 0 -41.5 -10t-31.5 -27t-12 -39q0 -13 6 -28t19.5 -36t36.5 -55l295 -425h-171zM501 416h170l-15 -96h-170z" />
    <glyph glyph-name="quotesingle" unicode="'" horiz-adv-x="232" 
d="M100 499l47 224h114l-47 -224h-114z" />
    <glyph glyph-name="parenleft" unicode="(" horiz-adv-x="304" 
d="M35 263q0 88 32 168.5t86.5 160.5t120.5 165l93 -43q-39 -51 -76 -106t-66.5 -113t-46.5 -114.5t-17 -109.5q0 -41 6.5 -87.5t18 -94.5t26.5 -93l-109 -49q-19 47 -34.5 100.5t-24.5 108.5t-9 107z" />
    <glyph glyph-name="parenright" unicode=")" horiz-adv-x="304" 
d="M289 431q0 -66 -19.5 -129t-52.5 -123t-76.5 -118t-90.5 -114l-87 49q57 75 102.5 144.5t71.5 139.5t26 144q0 56 -9 113.5t-20.5 105t-21.5 71.5l112 43q27 -79 46 -164t19 -162z" />
    <glyph glyph-name="asterisk" unicode="*" horiz-adv-x="337" 
d="M120 520l59 71l-62 22l30 58l62 -31l12 77h71l-21 -77l75 31l5 -58l-71 -22l30 -71l-59 -34l-27 75l-60 -75z" />
    <glyph glyph-name="plus" unicode="+" horiz-adv-x="427" 
d="M386 409v-108h-103v-113h-120v113h-104v108h104v113h120v-113h103z" />
    <glyph glyph-name="comma" unicode="," horiz-adv-x="230" 
d="M-16 -115l53 119h-42l30 140h115l-30 -140l-65 -119h-61z" />
    <glyph glyph-name="hyphen" unicode="-" horiz-adv-x="402" 
d="M38 214l26 121h289l-26 -121h-289z" />
    <glyph glyph-name="period" unicode="." horiz-adv-x="224" 
d="M-6 0l31 144h110l-31 -144h-110z" />
    <glyph glyph-name="slash" unicode="/" horiz-adv-x="692" 
d="M745 710l-624 -710h-148l624 710h148z" />
    <glyph glyph-name="zero" unicode="0" horiz-adv-x="594" 
d="M231 -10q-59 0 -102 30t-66 83t-23 121q0 77 26 145t71.5 119t103 80t119.5 29q59 0 102 -30t66 -83t23 -122q0 -77 -26 -145t-71 -118.5t-102.5 -79.5t-120.5 -29zM257 113q31 0 59 18.5t50 51t35 74.5t13 91q0 56 -21 91t-59 35q-31 0 -60 -19t-51 -51.5t-35 -75
t-13 -90.5q0 -56 22 -90.5t60 -34.5z" />
    <glyph glyph-name="one" unicode="1" horiz-adv-x="478" 
d="M25 121h135l65 303q-11 -12 -31.5 -24.5t-46 -23.5t-49.5 -18t-43 -7l27 125q17 0 43.5 11.5t54 27.5t49 31.5t27.5 24.5h137l-96 -450h121l-25 -121h-393z" />
    <glyph glyph-name="two" unicode="2" horiz-adv-x="545" 
d="M-26 0q10 45 24.5 81.5t38 67.5t58.5 58t84 52q46 24 81.5 41.5t59 32.5t35.5 31.5t12 39.5q0 17 -8 30.5t-23.5 21.5t-39.5 8q-22 0 -42 -6t-38.5 -17.5t-35 -25t-32.5 -28.5l-64 99q16 14 43 30.5t61.5 31t74 24t82.5 9.5q57 0 95.5 -18t58.5 -48.5t20 -72.5
q0 -41 -15 -73t-39.5 -55.5t-53.5 -42.5t-57 -34q-18 -10 -39.5 -22t-43 -26.5t-40.5 -31.5t-31 -36h263l-26 -121h-463z" />
    <glyph glyph-name="three" unicode="3" horiz-adv-x="538" 
d="M155 -147q-73 0 -123.5 24.5t-78.5 71.5l95 95q18 -32 48 -50.5t79 -18.5q46 0 77 14t47 41t16 66q0 41 -29 63t-90 22h-27l21 100h30q43 0 75.5 15.5t50.5 41.5t18 58q0 31 -20.5 47.5t-56.5 16.5q-42 0 -80.5 -21t-68.5 -59l-64 94q26 31 66.5 53.5t89 35.5t96.5 13
q87 0 137 -40t50 -107q0 -45 -21.5 -86t-58 -70t-80.5 -37q47 -9 73.5 -47t26.5 -93q0 -72 -38.5 -126.5t-105.5 -85.5t-154 -31z" />
    <glyph glyph-name="four" unicode="4" horiz-adv-x="553" 
d="M238 22h-273l26 119l407 430h91l-91 -429h84l-26 -120h-84l-31 -149h-134zM279 142l48 226l-202 -226h154z" />
    <glyph glyph-name="five" unicode="5" horiz-adv-x="533" 
d="M154 -149q-73 0 -124.5 33t-70.5 90l94 80q18 -39 52 -62t75 -23q29 0 54.5 10.5t45 30.5t30.5 46t11 57q0 41 -22.5 66t-60.5 25q-30 0 -58.5 -14.5t-49.5 -41.5h-117q9 21 22.5 55t30 76t33.5 86.5t33 85t29 72t20 48.5h333l-26 -122h-236l-58 -159q12 12 34.5 20.5
t53.5 8.5q54 0 94.5 -23t62.5 -64t22 -95q0 -62 -24 -114.5t-67 -90.5t-98.5 -59.5t-117.5 -21.5z" />
    <glyph glyph-name="six" unicode="6" horiz-adv-x="592" 
d="M236 -10q60 0 114.5 23t98 63.5t68.5 92.5t25 111q0 55 -24 98.5t-66.5 69.5t-100.5 26q-30 0 -58.5 -9.5t-52.5 -27t-43 -41.5q15 64 42 109.5t62.5 69.5t75.5 24q41 0 72 -21.5t46 -58.5l94 84q-26 54 -74 83t-111 29q-80 0 -146.5 -38t-114.5 -106t-74 -157t-26 -190
q0 -109 50 -171.5t143 -62.5zM261 103q-28 0 -49 15t-33 40t-12 55q0 31 12.5 59t34 49.5t48 33.5t55.5 12q28 0 49 -14t33 -38t12 -54q0 -31 -13 -59.5t-34.5 -50.5t-48.5 -35t-54 -13z" />
    <glyph glyph-name="seven" unicode="7" horiz-adv-x="546" 
d="M361 461h-300l26 122h512l-486 -710h-152z" />
    <glyph glyph-name="eight" unicode="8" horiz-adv-x="583" 
d="M224 -9q-59 0 -105 24t-72 66t-26 96q0 53 22.5 92t56 67t64.5 44q-25 15 -41 44.5t-16 63.5q0 53 25.5 93.5t67 69.5t88.5 44t89 15q47 0 90.5 -19t71.5 -55.5t28 -89.5q0 -38 -17 -70.5t-43.5 -57t-56.5 -38.5q29 -18 50.5 -54t21.5 -84q0 -54 -25 -100t-67 -80
t-95.5 -52.5t-110.5 -18.5zM251 112q24 0 48 9.5t44 26.5t31.5 40t11.5 50q0 28 -12.5 47t-33 29t-45.5 10t-48.5 -9t-43 -25.5t-31 -39.5t-11.5 -51q0 -26 12 -45.5t33 -30.5t45 -11zM317 425q18 0 37.5 6.5t36 19.5t26.5 31.5t10 41.5q0 21 -10 36t-26.5 23t-38.5 8
q-27 0 -52.5 -12t-41 -34t-15.5 -51q0 -22 10.5 -37.5t28 -23.5t35.5 -8z" />
    <glyph glyph-name="nine" unicode="9" horiz-adv-x="574" 
d="M170 -154q81 0 147 38t114 106t74 157t26 190q0 109 -50.5 171.5t-142.5 62.5q-60 0 -114.5 -23t-98 -63.5t-68 -92.5t-24.5 -111q0 -55 23.5 -98.5t66.5 -69.5t100 -26q31 0 59 9.5t52 27.5t43 41q-15 -64 -42 -109.5t-62 -69.5t-76 -24t-71.5 21.5t-46.5 58.5l-94 -84
q27 -54 74.5 -83t110.5 -29zM257 194q-28 0 -49.5 14t-33 38t-11.5 54q0 31 13 59.5t35 50.5t48.5 35t53.5 13q28 0 49 -15t33 -39.5t12 -55.5q0 -30 -12.5 -58.5t-34.5 -50t-48.5 -33.5t-54.5 -12z" />
    <glyph glyph-name="colon" unicode=":" horiz-adv-x="244" 
d="M82 374l31 144h109l-30 -144h-110zM3 0l31 144h109l-31 -144h-109z" />
    <glyph glyph-name="semicolon" unicode=";" horiz-adv-x="247" 
d="M83 374l30 144h110l-31 -144h-109zM-7 -115l52 119h-42l30 140h116l-30 -140l-66 -119h-60z" />
    <glyph glyph-name="less" unicode="&#x3c;" horiz-adv-x="550" 
d="M29 288l422 255v-142l-227 -142l227 -136v-150l-422 250v65z" />
    <glyph glyph-name="equal" unicode="=" horiz-adv-x="485" 
d="M80 144v87h313v-87h-313zM80 321v87h313v-87h-313z" />
    <glyph glyph-name="greater" unicode="&#x3e;" horiz-adv-x="550" 
d="M502 223l-422 -250v150l227 136l-227 142v142l422 -255v-65z" />
    <glyph glyph-name="question" unicode="?" horiz-adv-x="471" 
d="M101 233q7 32 19 60.5t33.5 52.5t57.5 43q30 16 57 31t49 32t35 38.5t13 50.5q0 33 -20.5 51t-49.5 18q-27 0 -50 -12.5t-41.5 -30.5t-32.5 -37l-75 60q26 41 62.5 70t78.5 44t86 15q42 0 79 -16.5t60 -50.5t23 -89q0 -44 -10.5 -76.5t-29.5 -56t-44 -42t-54 -34.5
t-57.5 -31t-50 -35.5t-28.5 -54.5h-110zM54 0l29 138h110l-29 -138h-110z" />
    <glyph glyph-name="at" unicode="@" horiz-adv-x="813" 
d="M578 44q26 0 49 24.5t39.5 63t25.5 82.5t9 83q0 52 -16.5 97.5t-48.5 80.5t-78.5 54.5t-106.5 19.5q-73 0 -140.5 -29.5t-120 -82t-83 -122.5t-30.5 -151q0 -76 28 -133.5t80.5 -90t125.5 -32.5q39 0 75 9.5t78 28.5l6 -52q-42 -20 -85.5 -30t-84.5 -10q-84 0 -147 38
t-98 106.5t-35 159.5q0 77 24.5 144.5t67.5 122.5t99.5 95t121 61.5t132.5 21.5t122.5 -22t92.5 -61.5t58 -92.5t20 -114q0 -38 -8.5 -82.5t-24.5 -88t-40.5 -79.5t-57 -57.5t-74.5 -21.5q-32 0 -53 15.5t-21 50.5v8.5t1 8.5q-36 -33 -77 -51.5t-82 -18.5q-49 0 -85 24
t-55.5 65.5t-19.5 94.5q0 55 20.5 105.5t55.5 90.5t79.5 63t92.5 23q50 0 82.5 -24.5t43.5 -62.5l14 74h68l-67 -335q-2 -8 -3 -17t-1 -16q0 -18 8 -28t24 -10zM350 64q30 0 56 13t46 36.5t32 52.5l20 127q-9 45 -36 69.5t-63 24.5q-29 0 -58 -15t-52.5 -41.5t-38 -62
t-14.5 -75.5q0 -37 13.5 -66t37.5 -46t57 -17z" />
    <glyph glyph-name="A" unicode="A" horiz-adv-x="645" 
d="M352 710h123l103 -710h-142l-22 177h-229l-96 -177h-142zM411 274l-31 279l-152 -279h183z" />
    <glyph glyph-name="B" unicode="B" horiz-adv-x="656" 
d="M161 710h364q40 0 66.5 -21t40 -54t13.5 -70q0 -41 -16.5 -80.5t-47 -71t-73.5 -49.5q44 -15 68.5 -52t24.5 -89q0 -54 -21.5 -96t-59.5 -70t-85 -42.5t-99 -14.5h-326zM361 117q19 0 38 8.5t33.5 24.5t23.5 36.5t9 43.5q0 21 -7 37.5t-20 26.5t-31 10h-196l-39 -187h189
zM404 413q18 0 35.5 8t31.5 22.5t22.5 35t8.5 45.5q0 31 -14.5 49.5t-40.5 18.5h-174l-38 -179h169z" />
    <glyph glyph-name="C" unicode="C" horiz-adv-x="658" 
d="M301 -6q-64 0 -113.5 25t-83 67.5t-50.5 96.5t-17 110q0 60 19.5 120t56 114t87 96t113.5 66.5t136 24.5q98 0 157.5 -43.5t78.5 -111.5l-118 -71q-9 41 -31.5 63.5t-51.5 31.5t-60 9q-62 0 -108 -26.5t-77 -69.5t-46.5 -93.5t-15.5 -97.5q0 -51 17 -94t51 -69t83 -26
q31 0 64.5 11.5t64.5 35t54 61.5l99 -65q-34 -54 -86 -91t-110.5 -55.5t-112.5 -18.5z" />
    <glyph glyph-name="D" unicode="D" horiz-adv-x="692" 
d="M161 710h247q92 0 151 -36.5t88 -98.5t29 -140q0 -94 -31.5 -173.5t-88 -138t-133 -91t-166.5 -32.5h-247zM282 121q58 0 104.5 23.5t79.5 65t50.5 94.5t17.5 111q0 52 -17 91t-50.5 61t-84.5 22h-110l-99 -468h109z" />
    <glyph glyph-name="E" unicode="E" horiz-adv-x="578" 
d="M161 710h460l-25 -121h-324l-36 -171h279l-24 -112h-279l-39 -185h332l-26 -121h-469z" />
    <glyph glyph-name="F" unicode="F" horiz-adv-x="556" 
d="M161 710h454l-26 -121h-317l-38 -183h262l-24 -112h-262l-63 -294h-137z" />
    <glyph glyph-name="G" unicode="G" horiz-adv-x="697" 
d="M291 -5q-56 0 -103 22t-80.5 61.5t-52 93t-18.5 115.5q0 86 34.5 163t93.5 137t133 94t155 34q95 0 154.5 -42.5t79.5 -112.5l-119 -76q-13 53 -52.5 81t-92.5 28q-49 0 -93.5 -24.5t-78.5 -65.5t-53.5 -93t-19.5 -108q0 -52 18 -94t52 -66.5t81 -24.5q51 0 103 28
t103 82l-29 -136q-52 -49 -105 -72.5t-110 -23.5zM533 264h-135l22 101h249l-78 -365h-114z" />
    <glyph glyph-name="H" unicode="H" horiz-adv-x="718" 
d="M161 710h137l-61 -287h296l61 287h137l-151 -710h-137l64 303h-296l-64 -303h-137z" />
    <glyph glyph-name="I" unicode="I" horiz-adv-x="285" 
d="M161 709h137l-151 -709h-137z" />
    <glyph glyph-name="J" unicode="J" horiz-adv-x="479" 
d="M94 -11q-43 0 -77 11t-60 33l54 112q10 -9 39.5 -21.5t69.5 -12.5q38 0 64.5 15t44.5 44.5t31 74t26 104.5l77 360h138l-77 -360q-17 -81 -40 -147t-58 -114t-91.5 -73.5t-140.5 -25.5z" />
    <glyph glyph-name="K" unicode="K" horiz-adv-x="643" 
d="M161 709h137l-72 -337l345 338h154l-325 -315l190 -395h-156l-139 307l-103 -95l-45 -212h-137z" />
    <glyph glyph-name="L" unicode="L" horiz-adv-x="561" 
d="M161 710h137l-125 -589h339l-25 -121h-477z" />
    <glyph glyph-name="M" unicode="M" horiz-adv-x="830" 
d="M161 710h148l107 -404l280 404h147l-151 -710h-137l100 470l-241 -350h-75l-92 350l-100 -470h-137z" />
    <glyph glyph-name="N" unicode="N" horiz-adv-x="733" 
d="M161 710h107l242 -466l99 465h137l-151 -709h-111l-241 455l-96 -455h-137z" />
    <glyph glyph-name="O" unicode="O" horiz-adv-x="729" 
d="M299 -5q-63 0 -112 24t-82.5 65.5t-50.5 94.5t-17 111q0 64 22 126.5t61.5 116t92.5 94.5t114.5 64.5t127.5 23.5q62 0 110.5 -24.5t82 -66.5t50 -95t16.5 -111q0 -64 -22 -125.5t-61 -115.5t-91.5 -95t-114 -64t-126.5 -23zM326 117q55 0 100.5 26.5t79 69.5t51 94.5
t17.5 100.5q0 50 -16.5 91.5t-49 67t-82.5 25.5q-55 0 -100.5 -26t-78.5 -69t-51.5 -94.5t-18.5 -101.5q0 -49 16.5 -91t49.5 -67.5t83 -25.5z" />
    <glyph glyph-name="P" unicode="P" horiz-adv-x="601" 
d="M161 710h286q54 0 92.5 -28t58.5 -73t20 -95q0 -49 -21 -98.5t-57.5 -89.5t-85 -64t-102.5 -24h-155l-50 -238h-137zM368 359q21 0 40.5 11t35 30.5t24.5 45.5t9 57q0 27 -8.5 46.5t-23.5 29.5t-33 10h-140l-49 -230h145z" />
    <glyph glyph-name="Q" unicode="Q" horiz-adv-x="728" 
d="M298 -5q-63 0 -111.5 24t-82 65.5t-51 94.5t-17.5 111q0 65 22.5 127t62 115.5t92.5 94.5t114 64.5t127 23.5q63 0 111.5 -24.5t82 -66.5t50 -95t16.5 -111q0 -64 -22 -125.5t-61 -115.5t-92 -94.5t-114 -64t-127 -23.5zM506 0l-171 263h130l172 -263h-131zM326 117
q55 0 100.5 26.5t78.5 69.5t51 94.5t18 100.5q0 50 -16.5 91.5t-49.5 67.5t-82 26q-55 0 -101 -26.5t-78.5 -69.5t-51 -94.5t-18.5 -101.5q0 -49 16.5 -90.5t49.5 -67.5t83 -26z" />
    <glyph glyph-name="R" unicode="R" horiz-adv-x="642" 
d="M10 0l151 710h300q54 0 92 -28t58.5 -73t20.5 -95q0 -39 -12.5 -76.5t-35.5 -70.5t-53.5 -59t-66.5 -41l96 -267h-156l-84 238h-123l-50 -238h-137zM382 359q21 0 40 11.5t34.5 31t24.5 45t9 53.5q0 26 -8.5 46t-23 31.5t-32.5 11.5h-154l-49 -230h159z" />
    <glyph glyph-name="S" unicode="S" horiz-adv-x="592" 
d="M243 -8q-75 0 -145 24.5t-119 67.5l86 119q6 -9 24 -23.5t46 -29t63 -24.5t74 -10q40 0 66.5 10.5t39.5 30t13 45.5q0 27 -19.5 43t-53.5 28.5t-78 26.5q-50 16 -84 36t-51.5 48.5t-17.5 68.5q0 62 24.5 111t67 82.5t96.5 51t113 17.5q47 0 87.5 -11t74 -29t58.5 -39
l-85 -112q-3 7 -18 19t-38 23t-51 19.5t-58 8.5q-39 0 -66.5 -12t-40.5 -33t-13 -50q0 -22 15.5 -37t44.5 -25.5t71 -23.5q53 -15 92.5 -36t61.5 -52.5t22 -80.5q0 -67 -25.5 -115t-68.5 -78t-96.5 -44.5t-111.5 -14.5z" />
    <glyph glyph-name="T" unicode="T" horiz-adv-x="592" 
d="M289 589h-213l25 121h563l-26 -121h-212l-125 -589h-138z" />
    <glyph glyph-name="U" unicode="U" horiz-adv-x="720" 
d="M295 -5q-85 0 -136.5 32t-74.5 86t-23 122q0 27 3 55.5t10 57.5l77 362h137l-77 -362q-5 -23 -7.5 -45t-2.5 -44q0 -40 11 -72t37.5 -51t70.5 -19q46 0 80.5 19.5t60 52.5t42 74.5t26.5 84.5l77 362h137l-77 -362q-15 -73 -46 -137t-77 -112.5t-108 -76t-140 -27.5z" />
    <glyph glyph-name="V" unicode="V" horiz-adv-x="646" 
d="M86 710h145l62 -537l288 537h145l-412 -710h-116z" />
    <glyph glyph-name="W" unicode="W" horiz-adv-x="1002" 
d="M82 710h149l68 -552l128 227l-44 323h127l24 -235l123 235h128l-183 -323l33 -227l302 552h150l-424 -710h-115l-51 298l-178 -298h-115z" />
    <glyph glyph-name="X" unicode="X" horiz-adv-x="619" 
d="M247 350l-162 360h150l106 -264l218 264h149l-315 -360l156 -350h-149l-100 254l-208 -254h-150z" />
    <glyph glyph-name="Y" unicode="Y" horiz-adv-x="619" 
d="M225 250l-144 460h150l88 -342l236 342h149l-343 -462l-52 -248h-137z" />
    <glyph glyph-name="Z" unicode="Z" horiz-adv-x="597" 
d="M-13 104l476 485h-361l25 121h521l-22 -104l-463 -485h362l-25 -121h-535z" />
    <glyph glyph-name="bracketleft" unicode="[" horiz-adv-x="302" 
d="M1 -40l166 780h184l-22 -107h-61l-120 -566h61l-23 -107h-185z" />
    <glyph glyph-name="backslash" unicode="\" horiz-adv-x="604" 
d="M256 710l262 -710h-148l-263 710h149z" />
    <glyph glyph-name="bracketright" unicode="]" horiz-adv-x="302" 
d="M-29 -40l23 107h61l120 566h-61l23 107h185l-165 -780h-186z" />
    <glyph glyph-name="asciicircum" unicode="^" horiz-adv-x="589" 
d="M48 303l198 407h112l197 -407h-110l-143 294l-146 -294h-108z" />
    <glyph glyph-name="underscore" unicode="_" horiz-adv-x="456" 
d="M-35 -121l25 121h347l-26 -121h-346z" />
    <glyph glyph-name="grave" unicode="`" horiz-adv-x="275" 
d="M150 730h123l26 -119l-93 -18z" />
    <glyph glyph-name="a" unicode="a" horiz-adv-x="624" 
d="M201 -10q-58 0 -99.5 28.5t-64 77t-22.5 109.5q0 65 23 124t63.5 105t92 72.5t108.5 26.5q54 0 92 -28.5t52 -72.5l20 90h134l-78 -368q-1 -5 -2 -9.5t-1 -8.5q0 -21 24 -22l-24 -114q-18 -3 -31.5 -5t-23.5 -2q-36 0 -56 15t-20 45q0 4 1 9.5t2 13t3 15.5
q-38 -49 -90 -75t-103 -26zM261 104q17 0 36 6.5t37.5 18t34.5 28t27 35.5l26 125q-3 29 -18 52t-37 36.5t-47 13.5q-32 0 -61.5 -16.5t-52.5 -44t-36.5 -62t-13.5 -70.5q0 -34 13 -62t36.5 -44t55.5 -16z" />
    <glyph glyph-name="b" unicode="b" horiz-adv-x="612" 
d="M282 -10q-58 0 -96 27.5t-54 73.5l-19 -91h-117l155 730h134l-64 -298q35 46 84.5 73.5t103.5 27.5q56 0 94 -28.5t57.5 -76.5t19.5 -107q0 -68 -25 -127.5t-67 -105.5t-95.5 -72t-110.5 -26zM272 104q32 0 62 15.5t53.5 42t37.5 61t14 72.5q0 34 -11.5 62t-32.5 45
t-52 17q-27 0 -54 -13.5t-50.5 -36.5t-41.5 -52l-27 -125q4 -26 18 -46t35.5 -31t48.5 -11z" />
    <glyph glyph-name="c" unicode="c" horiz-adv-x="542" 
d="M229 -10q-70 0 -118 30t-72 80.5t-24 110.5q0 62 24 120t67.5 103.5t103.5 72t132 26.5q84 0 133.5 -37t65.5 -97l-138 -40q-10 29 -32 44.5t-53 15.5t-60.5 -14.5t-53 -41t-37 -61.5t-13.5 -75q0 -36 12 -64t34 -43.5t51 -15.5q22 0 43.5 8t39.5 22t29 32l122 -40
q-26 -39 -65 -70t-87.5 -48.5t-103.5 -17.5z" />
    <glyph glyph-name="d" unicode="d" horiz-adv-x="624" 
d="M201 -10q-58 0 -99.5 28.5t-64 77t-22.5 109.5q0 65 23 124t63.5 105t92 72.5t108.5 26.5q54 0 92 -28.5t52 -72.5l64 298h134l-122 -576q-1 -5 -2 -9.5t-1 -8.5q0 -21 24 -22l-24 -114q-18 -3 -31.5 -5t-23.5 -2q-35 0 -55.5 14.5t-20.5 42.5q0 5 1 11t2 13.5t3 16.5
q-38 -49 -90 -75t-103 -26zM261 104q17 0 36 6.5t37.5 18t34.5 28t27 35.5l26 125q-3 29 -18 52t-37 36.5t-47 13.5q-32 0 -61.5 -16.5t-52.5 -44t-36.5 -62t-13.5 -70.5q0 -34 13 -62t36.5 -44t55.5 -16z" />
    <glyph glyph-name="e" unicode="e" horiz-adv-x="551" 
d="M230 -10q-66 0 -114.5 28.5t-74 79t-25.5 114.5q0 65 25 123t70 102.5t105 70t130 25.5q57 0 99 -17t65 -49.5t23 -79.5q0 -83 -75.5 -126t-226.5 -43q-30 0 -65 1.5t-76 5.5l17 84q36 -3 66 -4.5t59 -1.5q65 0 102.5 9t54.5 26t17 40q0 20 -10 32.5t-27.5 19t-41.5 6.5
q-39 0 -71.5 -18.5t-56.5 -50.5t-37 -73t-13 -87q0 -34 11.5 -61.5t34.5 -42.5t59 -15q40 0 75.5 19t56.5 53l106 -33q-26 -40 -68 -71t-92 -48.5t-102 -17.5z" />
    <glyph glyph-name="f" unicode="f" horiz-adv-x="361" 
d="M108 394h-64l22 102h64l7 32q13 65 44 112.5t74.5 73.5t94.5 26q31 0 61 -8t57 -23l-47 -101q-13 8 -31 13.5t-34 5.5q-31 0 -52.5 -24t-31.5 -70l-8 -37h120l-22 -102h-120l-129 -606h-134z" />
    <glyph glyph-name="g" unicode="g" horiz-adv-x="611" 
d="M162 -223q-82 0 -132.5 28.5t-79.5 80.5l88 71q20 -37 58 -58t87 -21q39 0 75 15.5t63.5 48t37.5 83.5l14 66q-34 -45 -83.5 -69.5t-99.5 -24.5q-55 0 -94.5 28t-59.5 75.5t-20 105.5q0 65 23.5 124t65 104.5t95 72t112.5 26.5q58 0 95.5 -27.5t55.5 -73.5l19 92h118
l-107 -499q-16 -78 -64 -133.5t-117 -85t-150 -29.5zM259 104q20 0 39.5 7t37.5 19t33 28.5t26 33.5l26 125q-4 31 -19 54t-36.5 35.5t-47.5 12.5q-33 0 -62 -17t-52 -44.5t-36 -61.5t-13 -70q0 -33 13 -61.5t36.5 -44.5t54.5 -16z" />
    <glyph glyph-name="h" unicode="h" horiz-adv-x="582" 
d="M151 730h134l-65 -303q38 50 91 78t109 28q47 0 73.5 -16.5t38 -44t11.5 -62.5q0 -20 -2.5 -41t-7.5 -42l-69 -327h-134l62 294q3 14 4.5 26t1.5 23q0 37 -16 54.5t-45 17.5q-21 0 -48.5 -14t-52.5 -38.5t-41 -56.5l-65 -306h-134z" />
    <glyph glyph-name="i" unicode="i" horiz-adv-x="253" 
d="M107 524h134l-111 -524h-134zM151 730h134l-28 -133h-134z" />
    <glyph glyph-name="j" unicode="j" horiz-adv-x="258" 
d="M-83 -196q-36 0 -66.5 11.5t-51.5 35.5l76 91q9 -12 22.5 -17t27.5 -5q16 0 31 8.5t26 23.5t15 34l115 538h134l-112 -528q-12 -56 -44.5 -100t-77.5 -68t-95 -24zM156 730h134l-29 -133h-134z" />
    <glyph glyph-name="k" unicode="k" horiz-adv-x="560" 
d="M238 237q85 17 131 55t46 81q0 24 -13 34.5t-33 10.5q-36 0 -76 -28t-72.5 -74.5t-49.5 -102.5l25 152q29 49 64.5 86.5t77 58.5t88.5 21q55 0 82 -30.5t27 -83.5q0 -65 -38.5 -120t-112.5 -92l98 -205h-142zM151 730h133l-155 -730h-133z" />
    <glyph glyph-name="l" unicode="l" horiz-adv-x="309" 
d="M121 -8q-50 0 -77.5 23.5t-27.5 67.5q0 9 1.5 18.5t2.5 19.5l130 609h133l-119 -562q-1 -5 -1.5 -10t-0.5 -10q0 -41 41 -41q11 0 25.5 4t27.5 10l-4 -102q-28 -13 -65 -20t-66 -7z" />
    <glyph glyph-name="m" unicode="m" horiz-adv-x="892" 
d="M107 524h121l-21 -97q38 50 92.5 78t111.5 28q42 0 68 -13.5t38.5 -38.5t13.5 -59q28 37 61 61t69.5 37t74.5 13q46 0 71 -16t35.5 -43.5t10.5 -62.5q0 -15 -2 -36t-8 -48l-70 -327h-134l62 294q7 31 7 53q0 34 -14.5 51t-39.5 17q-24 0 -50 -14t-49 -39t-39 -57
l-64 -305h-134l62 294q4 15 5 28.5t1 25.5q0 34 -14 50.5t-40 16.5q-36 0 -74.5 -30.5t-62.5 -78.5l-65 -306h-134z" />
    <glyph glyph-name="n" unicode="n" horiz-adv-x="582" 
d="M107 524h121l-21 -97q26 34 60.5 57.5t75 36t83.5 12.5q46 0 71 -16t35.5 -43.5t10.5 -61.5q0 -21 -3 -42t-7 -43l-69 -327h-134l62 294q4 15 5.5 28t1.5 25q0 35 -15.5 51.5t-41.5 16.5q-24 0 -52 -14t-53 -38.5t-42 -56.5l-65 -306h-134z" />
    <glyph glyph-name="o" unicode="o" horiz-adv-x="586" 
d="M234 -10q-76 0 -124.5 30t-71.5 80.5t-23 111.5q0 64 23.5 122t66.5 103t101.5 70.5t128.5 25.5q76 0 124.5 -30t71.5 -80t23 -112q0 -64 -23.5 -122t-66.5 -103t-101.5 -70.5t-128.5 -25.5zM254 104q31 0 60 14t51.5 40t36 61t13.5 76q0 37 -11.5 65t-34 43.5
t-54.5 15.5q-31 0 -59.5 -14t-51.5 -40t-36.5 -61.5t-13.5 -76.5q0 -36 11.5 -64t34 -43.5t54.5 -15.5z" />
    <glyph glyph-name="p" unicode="p" horiz-adv-x="612" 
d="M107 524h117l-19 -90q37 46 86.5 72.5t105.5 26.5q57 0 97.5 -28.5t62.5 -77.5t22 -109q0 -64 -23 -123.5t-62.5 -105.5t-90.5 -72.5t-107 -26.5q-57 0 -95 27.5t-52 74.5l-65 -305h-134zM276 104q32 0 61.5 16.5t52 44t36 62t13.5 69.5t-12.5 63t-36 44t-55.5 16
q-18 0 -37 -6.5t-37.5 -18.5t-34 -28t-26.5 -35l-27 -123q6 -29 20 -53t35.5 -37.5t47.5 -13.5z" />
    <glyph glyph-name="q" unicode="q" horiz-adv-x="611" 
d="M373 92q-37 -50 -86 -76t-104 -26q-53 0 -90.5 28t-57.5 76t-20 108q0 68 24.5 128t67 105.5t96 71.5t110.5 26t95 -27.5t55 -72.5l19 91h117l-156 -737h-134zM257 104q26 0 50 11t46.5 30.5t40.5 44.5l27 124q-2 30 -16 53.5t-35.5 37.5t-48.5 14q-32 0 -61.5 -16.5
t-53 -44t-37.5 -62t-14 -71.5q0 -34 12 -61.5t35 -43.5t55 -16z" />
    <glyph glyph-name="r" unicode="r" horiz-adv-x="378" 
d="M107 524h123l-24 -112q38 54 85.5 85.5t93.5 31.5q10 0 15.5 -0.5t8.5 -1.5l-25 -119q-57 0 -107.5 -23.5t-79.5 -67.5l-67 -317h-134z" />
    <glyph glyph-name="s" unicode="s" horiz-adv-x="480" 
d="M186 -10q-64 0 -120.5 21t-90.5 60l67 84q38 -33 78 -50.5t81 -17.5q28 0 48 8.5t31 23t11 33.5q0 25 -22 37t-69 26q-52 17 -85.5 32.5t-49.5 37t-16 54.5q0 56 31.5 100t85 69.5t119.5 25.5q57 0 102 -17.5t80 -54.5l-71 -81q-32 30 -61.5 43.5t-64.5 13.5
q-26 0 -46.5 -7.5t-32.5 -22.5t-12 -36q0 -23 18.5 -33.5t64.5 -24.5q56 -16 92 -33.5t54 -41.5t18 -61q0 -55 -30 -97t-84 -66.5t-126 -24.5z" />
    <glyph glyph-name="t" unicode="t" horiz-adv-x="373" 
d="M47 83q0 9 1 18t3 19l64 301h-65l22 103h64l36 170h134l-36 -170h105l-22 -103h-104l-55 -256q-1 -4 -1.5 -8t-0.5 -8q0 -19 11 -27t27 -8q13 0 26.5 3t25.5 8t21 8l4 -106q-20 -9 -45 -17.5t-52 -13.5t-54 -5q-47 0 -78 21.5t-31 70.5z" />
    <glyph glyph-name="u" unicode="u" horiz-adv-x="595" 
d="M145 -10q-123 0 -123 128q0 18 2.5 37t7.5 41l70 328h133l-63 -299q-7 -29 -7 -50q0 -71 60 -71q24 0 48.5 10.5t49.5 31.5t46 53l69 325h134l-79 -370q-1 -5 -1.5 -9.5t-0.5 -8.5q0 -21 24 -22l-24 -114q-18 -3 -31.5 -5t-24.5 -2q-34 0 -54 14t-20 43q0 5 0.5 11
t2 15.5t4.5 21.5q-45 -53 -102.5 -80.5t-120.5 -27.5z" />
    <glyph glyph-name="v" unicode="v" horiz-adv-x="526" 
d="M50 524h139l32 -415q36 56 65.5 107t53.5 100.5t44 101t36 106.5h123q-36 -130 -109 -261.5t-174 -262.5h-140z" />
    <glyph glyph-name="w" unicode="w" horiz-adv-x="790" 
d="M42 524h131l63 -404q24 36 45.5 71.5t41.5 70.5l-56 262h117l26 -162q20 40 37.5 81t32.5 81h109q-24 -71 -55 -134t-72 -127l26 -120q32 43 58 81t47 74t39 71.5t34 73.5t30 81h123q-44 -130 -124.5 -261.5t-190.5 -262.5h-101l-29 171q-26 -43 -53 -85.5t-56 -85.5
h-122z" />
    <glyph glyph-name="x" unicode="x" horiz-adv-x="511" 
d="M175 261l-120 263h137l67 -164l5 -18l12 18l139 164h137l-232 -263l123 -261h-138l-70 163l-5 17l-12 -17l-140 -163h-138z" />
    <glyph glyph-name="y" unicode="y" horiz-adv-x="520" 
d="M-44 -126q40 3 65.5 10t44.5 22.5t39 43.5l29 39l-87 535h137l45 -408l34 56q31 51 54.5 95.5t41 86t30.5 83.5t24 87h130q-13 -48 -29 -90.5t-38 -88.5t-55.5 -104t-83.5 -138l-80 -129q-35 -56 -67.5 -94.5t-66 -62.5t-70.5 -34.5t-81 -11.5z" />
    <glyph glyph-name="z" unicode="z" horiz-adv-x="471" 
d="M-21 82l342 348h-256l20 94h400l-18 -82l-341 -348h272l-20 -94h-416z" />
    <glyph glyph-name="braceleft" unicode="{" horiz-adv-x="308" 
d="M281 633l-43 -204q-5 -20 -18 -37.5t-31 -31.5q9 -10 15 -23.5t6 -29.5q0 -4 -0.5 -8t-1.5 -8l-45 -215h52l-23 -107h-151q-5 0 -10.5 4t-5.5 15v5t1 6l52 248q1 4 1.5 8t0.5 8q0 21 -10.5 34.5t-25.5 16.5l20 94q14 0 27 10.5t23 25.5t13 29l50 237q4 19 13.5 24.5
t14.5 5.5h151l-23 -107h-52z" />
    <glyph glyph-name="bar" unicode="|" horiz-adv-x="327" 
d="M112 -130v905h114v-905h-114z" />
    <glyph glyph-name="braceright" unicode="}" horiz-adv-x="309" 
d="M118 633l23 107h150q5 0 11 -4t6 -17q0 -6 -1 -9l-51 -237q-1 -3 -1 -6.5v-6.5q0 -19 10 -35.5t27 -16.5l-21 -94q-20 -3 -38.5 -21.5t-24.5 -45.5l-52 -248q-4 -18 -13.5 -24t-15.5 -6h-150l22 107h53l45 215q5 19 18.5 37.5t29.5 31.5q-8 11 -14 24t-6 28q0 5 0.5 9
t1.5 8l44 204h-53z" />
    <glyph glyph-name="asciitilde" unicode="~" horiz-adv-x="546" 
d="M41 228q1 8 10 29.5t27 45t46.5 40.5t66.5 17q36 0 62 -13t50.5 -27t53.5 -14q27 0 43 12t23 25t7 15h73q0 -6 -9 -26t-27.5 -44.5t-47.5 -42t-70 -17.5q-34 0 -61 13t-51 26t-53 13q-27 0 -42 -12.5t-21 -25.5t-6 -14h-74z" />
    <glyph glyph-name="uni00A0" unicode="&#xa0;" horiz-adv-x="236" 
 />
    <glyph glyph-name="exclamdown" unicode="&#xa1;" horiz-adv-x="290" 
d="M243 445l-96 -450h-134l96 450h134zM299 712l-32 -151h-134l32 151h134z" />
    <glyph glyph-name="cent" unicode="&#xa2;" horiz-adv-x="571" 
d="M177 -120l24 111q-55 5 -94 37t-59.5 81t-20.5 103q0 55 20 107.5t57.5 97t91 75t120.5 40.5l24 113h60l-24 -113q65 -2 112.5 -36t65.5 -97l-139 -40q-6 25 -24 39.5t-40 16.5l-65 -308q16 4 33.5 11.5t32.5 20t24 27.5l122 -40q-28 -45 -71.5 -75.5t-88.5 -45.5
t-77 -15l-24 -110h-60zM165 223q0 -24 7.5 -47t21.5 -39.5t33 -23.5l63 296q-26 -6 -49 -24.5t-40 -45t-26.5 -56.5t-9.5 -60z" />
    <glyph glyph-name="sterling" unicode="&#xa3;" horiz-adv-x="525" 
d="M73 381h364l-22 -101h-363zM5 87q36 27 62.5 54t45 54t27.5 55.5t9 58.5q0 34 -7.5 66.5t-14.5 65t-7 63.5q0 45 20 83t54 66.5t77 45t89 16.5q58 0 105 -28t72 -77l-87 -82q-15 34 -47.5 56t-66.5 22q-26 0 -48.5 -13.5t-36 -36.5t-13.5 -53q0 -26 7.5 -54t14.5 -59.5
t7 -67.5q0 -28 -5.5 -53t-19 -50.5t-37.5 -53t-60 -61.5q22 6 40 9t34 3q24 0 44 -4t40 -8.5t41 -4.5q17 0 34 4t40 12l11 -100q-25 -14 -57 -22t-59 -8q-28 0 -56 7.5t-56.5 14.5t-59.5 7q-25 0 -60 -6.5t-67 -15.5z" />
    <glyph glyph-name="currency" unicode="&#xa4;" horiz-adv-x="576" 
d="M190 495q22 15 48.5 22.5t57.5 7.5t57 -7.5t48 -21.5l69 71l55 -55l-68 -67q15 -23 23.5 -50.5t8.5 -57.5q0 -29 -8.5 -56.5t-24.5 -50.5l69 -68l-50 -50l-72 68q-22 -13 -48.5 -21t-58.5 -8t-59 8t-50 22l-73 -69l-49 50l69 69q-31 48 -31 106q0 30 7.5 57t22.5 49
l-68 69l54 55zM203 337q0 -30 12.5 -53t33.5 -36t47 -13q27 0 47.5 13.5t33 37t12.5 52.5q0 30 -12.5 53t-33 36t-47.5 13q-26 0 -47 -13t-33.5 -36.5t-12.5 -53.5z" />
    <glyph glyph-name="yen" unicode="&#xa5;" horiz-adv-x="686" 
d="M507 402h69l-18 -87h-115l-49 -67l-6 -30h149l-17 -87h-151l-27 -131h-137l27 131h-148l19 87h148l7 32l-20 65h-114l18 87h70l-98 308h149l88 -342l236 342h150z" />
    <glyph glyph-name="brokenbar" unicode="&#xa6;" horiz-adv-x="320" 
d="M222 264v-394h-114v394h114zM222 775v-394h-114v394h114z" />
    <glyph glyph-name="section" unicode="&#xa7;" horiz-adv-x="515" 
d="M421 215q16 -20 16 -63q0 -65 -26 -110.5t-67 -74.5t-86 -42t-82 -13q-50 0 -87.5 18t-61.5 42.5t-36 43.5l103 82q22 -31 47.5 -45t55.5 -14q17 0 34 5.5t31.5 16t22.5 25.5t8 34q0 18 -9 27t-23 12.5t-29 3.5q-80 7 -122 45t-42 100q0 28 6.5 49t15.5 35.5t15 22.5
q-7 10 -12.5 31t-5.5 47q0 44 20.5 84t55.5 71t79 49t91 18q42 0 72.5 -12t50.5 -31t33.5 -40.5t21.5 -39.5l-113 -49q-5 17 -16.5 29t-28 18t-37.5 6q-18 0 -34.5 -5.5t-29.5 -16.5t-20.5 -26.5t-7.5 -34.5q0 -28 18.5 -37.5t45.5 -10.5q42 -1 82 -14.5t66.5 -43
t26.5 -79.5q0 -26 -7.5 -48.5t-17 -39t-17.5 -25.5zM196 309q0 -19 8 -29t21 -15t28 -7t28.5 -3.5t22.5 -6.5q12 9 20 25.5t8 32.5q0 19 -10 30t-24 16t-28 5q-15 0 -28.5 3t-19.5 6q-9 -8 -17.5 -23.5t-8.5 -33.5z" />
    <glyph glyph-name="dieresis" unicode="&#xa8;" horiz-adv-x="399" 
d="M122 604l26 119h111l-26 -119h-111zM310 604l26 119h110l-25 -119h-111z" />
    <glyph glyph-name="copyright" unicode="&#xa9;" horiz-adv-x="855" 
d="M436 -7q-81 0 -149 27t-119 76t-79 115t-28 144q0 77 28 143t79 114.5t119 75.5t149 27q82 0 151.5 -27t121 -75.5t80 -114.5t28.5 -143q0 -78 -28.5 -144t-80 -115t-121 -76t-151.5 -27zM436 43q69 0 128.5 22.5t104 64t69.5 98.5t25 126q0 66 -24.5 122.5t-68.5 99
t-104 66t-130 23.5q-68 0 -127 -23.5t-102.5 -66t-67.5 -99t-24 -122.5q0 -65 24 -121.5t67.5 -99.5t102 -66.5t127.5 -23.5zM445 116q-57 0 -103 18.5t-79.5 50.5t-52 75.5t-18.5 94.5q0 45 16 88t47 77t78 53.5t109 19.5q80 0 137.5 -34.5t84.5 -93.5l-130 -40
q-10 21 -25.5 32.5t-33 16.5t-33.5 5q-27 0 -47.5 -10t-35.5 -27t-22 -39.5t-7 -47.5q0 -30 9.5 -53.5t26 -39t36.5 -24t41 -8.5q19 0 37 7t33 19.5t24 29.5l130 -39q-15 -34 -46 -63.5t-75.5 -48.5t-100.5 -19z" />
    <glyph glyph-name="ordfeminine" unicode="&#xaa;" horiz-adv-x="425" 
d="M160 339q-41 0 -66.5 26.5t-25.5 66.5q0 41 22.5 72t61.5 49.5t85 18.5q23 0 42 -4.5t33 -11.5l4 19q1 6 1.5 11t0.5 10q0 23 -14 36t-42 13q-27 0 -54.5 -10t-59.5 -30l-16 61q76 47 152 47q63 0 97 -27.5t34 -79.5q0 -10 -1.5 -21t-3.5 -22l-23 -104q-1 -3 -1 -6v-5
q0 -17 20 -18l-18 -85q-11 -2 -23 -3t-19 -1q-28 0 -41 10.5t-13 29.5q0 5 0.5 9.5l1.5 13.5q-29 -31 -63.5 -48t-70.5 -17zM204 411q17 0 36 7.5t34 20t18 25.5l8 39q-11 6 -27 9t-30 3q-33 0 -57 -17.5t-24 -44.5q0 -18 11.5 -30t30.5 -12z" />
    <glyph glyph-name="guillemotleft" unicode="&#xab;" horiz-adv-x="629" 
d="M33 288l292 189l-23 -109l-169 -109l124 -103l-23 -110l-215 177zM316 288l293 189l-23 -109l-169 -109l124 -103l-23 -110l-215 177z" />
    <glyph glyph-name="logicalnot" unicode="&#xac;" horiz-adv-x="591" 
d="M547 400l-63 -294h-113l37 174h-355l25 120h469z" />
    <glyph glyph-name="uni00AD" unicode="&#xad;" horiz-adv-x="582" 
d="M38 214l26 121h468l-25 -121h-469z" />
    <glyph glyph-name="registered" unicode="&#xae;" horiz-adv-x="855" 
d="M437 -7q-81 0 -149.5 27t-119.5 76t-79 115t-28 144q0 77 28 143t79 114.5t119.5 75.5t149.5 27q82 0 151 -27t120.5 -75.5t80 -114.5t28.5 -143q0 -78 -28.5 -144t-80 -115t-120.5 -76t-151 -27zM438 42q91 0 164 39.5t115.5 110t42.5 161.5q0 66 -24 122.5t-67 99.5
t-102.5 66.5t-128.5 23.5q-70 0 -128.5 -23.5t-101.5 -66t-66.5 -99t-23.5 -121.5q0 -66 23.5 -123t66.5 -100t101.5 -66.5t128.5 -23.5zM275 576h196q41 0 72.5 -22t49.5 -55.5t18 -69.5q0 -27 -10.5 -52.5t-28 -45t-42.5 -29.5l103 -166h-106l-93 148h-63v-148h-96v440z
M463 366q24 0 39 16.5t15 46.5q0 31 -17 47t-40 16h-89v-126h92z" />
    <glyph glyph-name="macron" unicode="&#xaf;" horiz-adv-x="387" 
d="M128 632l18 83h287l-18 -83h-287z" />
    <glyph glyph-name="degree" unicode="&#xb0;" horiz-adv-x="278" 
d="M183 519q-37 0 -58.5 22t-21.5 57q0 32 16.5 61t44.5 47t63 18q37 0 58.5 -23t21.5 -58q0 -34 -17 -62.5t-45 -45t-62 -16.5zM197 584q15 0 29 13.5t14 31.5q0 15 -8 22.5t-19 7.5q-16 0 -30 -13t-14 -31q0 -13 7.5 -22t20.5 -9z" />
    <glyph glyph-name="plusminus" unicode="&#xb1;" horiz-adv-x="511" 
d="M67 28v108h353v-108h-353zM421 430v-107h-117v-127h-120v127h-117v107h117v127h120v-127h117z" />
    <glyph glyph-name="uni00B2" unicode="&#xb2;" horiz-adv-x="403" 
d="M48 389q12 53 30.5 88.5t50.5 60.5t82 45q26 11 51.5 20.5t47 21.5t35 28t13.5 39t-15.5 36.5t-46.5 13.5q-27 0 -52 -8.5t-44.5 -21t-33.5 -25.5l-37 60q14 14 41 30t65 27.5t82 11.5q65 0 98 -28.5t33 -76.5q0 -35 -12 -61.5t-33.5 -46t-49.5 -33.5t-59 -25
q-31 -9 -52 -21.5t-33 -26.5t-15 -30h204l-18 -78h-332z" />
    <glyph glyph-name="uni00B3" unicode="&#xb3;" horiz-adv-x="392" 
d="M202 383q-56 0 -95 20.5t-45 59.5l53 49q8 -20 31.5 -37.5t67.5 -17.5q27 0 49.5 8t36.5 22.5t14 35.5q0 24 -26 36.5t-80 12.5h-23l15 71h22q61 0 89.5 14t28.5 43q0 24 -20 34t-42 10q-38 0 -67 -14t-49 -34l-35 60q19 20 47 32.5t61 20t63 7.5q62 0 97.5 -28.5
t35.5 -71.5q0 -40 -27 -67.5t-74 -37.5q33 -6 50.5 -30.5t17.5 -57.5q0 -48 -29 -79t-73.5 -46t-93.5 -15z" />
    <glyph glyph-name="acute" unicode="&#xb4;" horiz-adv-x="274" 
d="M211 594l-87 17l76 119h124z" />
    <glyph glyph-name="uni00B5" unicode="&#xb5;" horiz-adv-x="634" 
d="M117 524h134l-64 -299q-2 -14 -4 -27t-2 -24q0 -70 62 -70q23 0 47.5 10.5t49 31.5t45.5 53l69 325h134l-79 -370q-1 -5 -1.5 -9t-0.5 -8q0 -22 30 -23l-25 -114q-20 -3 -35 -5t-26 -2q-36 0 -55 15t-19 42q0 7 1 17.5t6 30.5q-15 -23 -43.5 -48.5t-62.5 -42.5t-67 -17
t-50 17t-19 42l-48 -261h-134z" />
    <glyph glyph-name="paragraph" unicode="&#xb6;" horiz-adv-x="635" 
d="M62 396q0 96 40.5 166t114.5 109t175 39h286l-22 -100h-66l-147 -690h-114l62 288h-46l-61 -288h-114l61 288q-80 1 -124.5 52.5t-44.5 135.5zM176 410q0 -31 10 -53t27.5 -34t38.5 -15l65 302q-41 -2 -72.5 -30.5t-50 -73t-18.5 -96.5zM477 610h-47l-64 -302h46z" />
    <glyph glyph-name="periodcentered" unicode="&#xb7;" horiz-adv-x="224" 
d="M44 242l32 151h110l-32 -151h-110z" />
    <glyph glyph-name="cedilla" unicode="&#xb8;" horiz-adv-x="309" 
d="M56 -201q-23 0 -48.5 7.5t-49.5 22.5l49 71q10 -10 22 -15.5t25 -5.5q23 0 39 15t16 41q0 18 -7 34t-21 31l49 29q22 -22 37.5 -48.5t15.5 -60.5q0 -33 -14.5 -60.5t-43 -44t-69.5 -16.5z" />
    <glyph glyph-name="uni00B9" unicode="&#xb9;" horiz-adv-x="288" 
d="M303 469l-17 -79h-220l17 79h74l55 261q-8 -9 -26.5 -21t-38.5 -21t-35 -9l17 79q15 0 32 8.5t32.5 19.5t26 20t10.5 10h81l-75 -347h67z" />
    <glyph glyph-name="ordmasculine" unicode="&#xba;" horiz-adv-x="428" 
d="M221 339q-48 0 -79.5 20.5t-47.5 54.5t-16 74q0 44 16.5 84t46 71.5t70 50.5t89.5 19q48 0 79.5 -20.5t47.5 -54t16 -74.5q0 -43 -16 -83t-46 -72.5t-70.5 -51t-89.5 -18.5zM239 423q26 0 50 17.5t39 46.5t15 64q0 34 -16.5 55.5t-44.5 21.5q-27 0 -50.5 -17t-38.5 -46
t-15 -64q0 -34 16.5 -56t44.5 -22z" />
    <glyph glyph-name="guillemotright" unicode="&#xbb;" horiz-adv-x="629" 
d="M576 223l-289 -177l22 110l169 103l-124 109l24 109l212 -189zM292 223l-289 -177l23 110l168 103l-123 109l23 109l212 -189z" />
    <glyph glyph-name="onequarter" unicode="&#xbc;" horiz-adv-x="867" 
d="M286 384l-17 -78h-221l17 78h75l55 261q-9 -8 -27 -20.5t-38 -21.5t-36 -9l17 80q15 0 32.5 8t33 19.5t26 20t10.5 9.5h80l-74 -347h67zM49 47l337 329l319 342l49 -54l-329 -324l-328 -347zM631 0l22 97h-196l16 73l281 252h58l-57 -256h52l-15 -69h-52l-21 -97h-88z
M547 166h124l33 149z" />
    <glyph glyph-name="onehalf" unicode="&#xbd;" horiz-adv-x="882" 
d="M460 0q12 58 36 95.5t57.5 61.5t74.5 41q24 10 47.5 19t42.5 20.5t30.5 27t11.5 37.5q-1 23 -15.5 36.5t-45.5 13.5q-26 0 -49.5 -8.5t-43 -21t-32.5 -24.5l-35 59q12 14 39 30t63.5 27.5t78.5 11.5q62 0 94.5 -28.5t32.5 -76.5q0 -35 -11.5 -61t-31.5 -45.5t-46.5 -33
t-57.5 -25.5q-32 -11 -53 -24t-33.5 -26.5t-19.5 -28.5h204l-17 -77h-321zM286 384l-17 -78h-221l17 78h75l55 261q-9 -8 -27 -20.5t-38 -21.5t-36 -9l17 80q15 0 32.5 8t33 19.5t26 20t10.5 9.5h80l-74 -347h67zM48 47l338 329l318 342l50 -54l-329 -324l-328 -347z" />
    <glyph glyph-name="threequarters" unicode="&#xbe;" horiz-adv-x="970" 
d="M185 298q-37 0 -67 9.5t-49 27t-23 42.5l53 50q8 -20 31.5 -37.5t67.5 -17.5q27 0 49.5 8t36.5 22.5t14 35.5q0 24 -26 36.5t-80 12.5h-23l15 71h22q61 0 89.5 14t28.5 43q0 24 -20 34t-43 10q-37 0 -66 -14t-49 -34l-35 60q19 20 47 32.5t61 19.5t63 7q62 0 97.5 -28
t35.5 -71q0 -40 -27 -67.5t-74 -37.5q33 -6 50.5 -30.5t17.5 -57.5q0 -48 -29 -79t-73.5 -46t-94.5 -15zM152 47l337 329l319 342l49 -54l-329 -324l-328 -347zM734 0l22 97h-196l16 73l281 252h58l-57 -256h52l-15 -69h-52l-21 -97h-88zM650 166h124l33 149z" />
    <glyph glyph-name="questiondown" unicode="&#xbf;" horiz-adv-x="466" 
d="M347 273q-6 -32 -18 -60.5t-34 -52t-58 -43.5q-30 -16 -57 -31t-49 -32t-35 -38.5t-13 -50.5q0 -33 20.5 -51t49.5 -18q27 0 50 12.5t42 31t32 36.5l75 -60q-25 -41 -62 -70t-79 -44t-86 -15q-41 0 -78.5 16.5t-60.5 50.5t-23 89q0 44 10.5 76.5t29.5 56t44.5 42
t53.5 34.5q30 17 58 31.5t49.5 35t28.5 54.5h110zM394 506l-29 -138h-110l29 138h110z" />
    <glyph glyph-name="Agrave" unicode="&#xc0;" horiz-adv-x="645" 
d="M352 710h123l103 -710h-142l-22 177h-229l-96 -177h-142zM411 274l-31 279l-152 -279h183zM318 916h123l26 -119l-93 -18z" />
    <glyph glyph-name="Aacute" unicode="&#xc1;" horiz-adv-x="645" 
d="M352 710h123l103 -710h-142l-22 177h-229l-96 -177h-142zM411 274l-31 279l-152 -279h183zM460 782l-87 17l76 119h124z" />
    <glyph glyph-name="Acircumflex" unicode="&#xc2;" horiz-adv-x="645" 
d="M352 710h123l103 -710h-142l-22 177h-229l-96 -177h-142zM411 274l-31 279l-152 -279h183zM287 815l124 101h96l81 -101l-77 -32l-67 63l-94 -63z" />
    <glyph glyph-name="Atilde" unicode="&#xc3;" horiz-adv-x="645" 
d="M352 710h123l103 -710h-142l-22 177h-229l-96 -177h-142zM411 274l-31 279l-152 -279h183zM495 788q-29 0 -47 11.5t-33 22.5t-36 11t-33 -11.5t-17 -23.5t-5 -13h-74q2 9 12 30t28.5 43.5t43.5 38.5t57 16q22 0 36.5 -7t26 -16.5t24 -16.5t28.5 -7q23 0 36.5 12t19.5 24
t6 14h73q-2 -7 -12 -27t-29 -43.5t-45.5 -40.5t-59.5 -17z" />
    <glyph glyph-name="Adieresis" unicode="&#xc4;" horiz-adv-x="645" 
d="M352 710h123l103 -710h-142l-22 177h-229l-96 -177h-142zM411 274l-31 279l-152 -279h183zM283 790l26 119h111l-26 -119h-111zM471 790l26 119h110l-25 -119h-111z" />
    <glyph glyph-name="Aring" unicode="&#xc5;" horiz-adv-x="645" 
d="M352 710h123l103 -710h-142l-22 177h-229l-96 -177h-142zM411 274l-31 279l-152 -279h183zM346 824q0 43 32.5 67.5t81.5 24.5q37 0 58.5 -16t21.5 -46q0 -43 -32 -67.5t-81 -24.5q-38 0 -59.5 16.5t-21.5 45.5zM450 875q-18 0 -32 -11.5t-14 -30.5q0 -13 8.5 -21.5
t22.5 -8.5q18 0 32.5 12.5t14.5 30.5q0 13 -9 21t-23 8z" />
    <glyph glyph-name="AE" unicode="&#xc6;" horiz-adv-x="929" 
d="M490 710h484l-26 -121h-311l-35 -167h259l-26 -121h-259l-38 -180h318l-25 -121h-456l38 177h-213l-133 -177h-147zM428 297l55 258l-198 -258h143z" />
    <glyph glyph-name="Ccedilla" unicode="&#xc7;" horiz-adv-x="658" 
d="M301 -6q-64 0 -113.5 25t-83 67.5t-50.5 96.5t-17 110q0 60 19.5 120t56 114t87 96t113.5 66.5t136 24.5q98 0 157.5 -43.5t78.5 -111.5l-118 -71q-9 41 -31.5 63.5t-51.5 31.5t-60 9q-62 0 -108 -26.5t-77 -69.5t-46.5 -93.5t-15.5 -97.5q0 -51 17 -94t51 -69t83 -26
q31 0 64.5 11.5t64.5 35t54 61.5l99 -65q-34 -54 -86 -91t-110.5 -55.5t-112.5 -18.5zM214 -201q-23 0 -48.5 7.5t-49.5 22.5l49 71q10 -10 22 -15.5t25 -5.5q23 0 39 15t16 41q0 18 -7 34t-21 31l49 29q22 -22 37.5 -48.5t15.5 -60.5q0 -33 -14.5 -60.5t-43 -44
t-69.5 -16.5z" />
    <glyph glyph-name="Egrave" unicode="&#xc8;" horiz-adv-x="578" 
d="M161 710h460l-25 -121h-324l-36 -171h279l-24 -112h-279l-39 -185h332l-26 -121h-469zM294 916h123l26 -119l-93 -18z" />
    <glyph glyph-name="Eacute" unicode="&#xc9;" horiz-adv-x="578" 
d="M161 710h460l-25 -121h-324l-36 -171h279l-24 -112h-279l-39 -185h332l-26 -121h-469zM428 782l-87 17l76 119h124z" />
    <glyph glyph-name="Ecircumflex" unicode="&#xca;" horiz-adv-x="578" 
d="M161 710h460l-25 -121h-324l-36 -171h279l-24 -112h-279l-39 -185h332l-26 -121h-469zM256 815l124 101h96l81 -101l-77 -32l-67 63l-94 -63z" />
    <glyph glyph-name="Edieresis" unicode="&#xcb;" horiz-adv-x="578" 
d="M161 710h460l-25 -121h-324l-36 -171h279l-24 -112h-279l-39 -185h332l-26 -121h-469zM252 790l26 119h111l-26 -119h-111zM440 790l26 119h110l-25 -119h-111z" />
    <glyph glyph-name="Igrave" unicode="&#xcc;" horiz-adv-x="285" 
d="M161 709h137l-151 -709h-137zM139 916h123l26 -119l-93 -18z" />
    <glyph glyph-name="Iacute" unicode="&#xcd;" horiz-adv-x="285" 
d="M161 709h137l-151 -709h-137zM271 782l-87 17l76 119h124z" />
    <glyph glyph-name="Icircumflex" unicode="&#xce;" horiz-adv-x="285" 
d="M161 709h137l-151 -709h-137zM105 815l124 101h96l81 -101l-77 -32l-67 63l-94 -63z" />
    <glyph glyph-name="Idieresis" unicode="&#xcf;" horiz-adv-x="285" 
d="M161 709h137l-151 -709h-137zM99 790l26 119h111l-26 -119h-111zM287 790l26 119h110l-25 -119h-111z" />
    <glyph glyph-name="Eth" unicode="&#xd0;" horiz-adv-x="698" 
d="M57 407h312l-22 -100h-311zM166 710h247q92 0 151.5 -36.5t88 -98.5t28.5 -140q0 -94 -31.5 -173.5t-88 -138t-133 -91t-166.5 -32.5h-247zM288 121q57 0 103.5 23.5t79.5 64.5t51 94t18 112q0 52 -17.5 91t-51 61t-84.5 22h-109l-100 -468h110z" />
    <glyph glyph-name="Ntilde" unicode="&#xd1;" horiz-adv-x="733" 
d="M161 710h107l242 -466l99 465h137l-151 -709h-111l-241 455l-96 -455h-137zM541 786q-29 0 -47 11.5t-33 22.5t-36 11t-33 -11.5t-17 -23.5t-5 -13h-74q2 9 12 30t28.5 43.5t43.5 38.5t57 16q22 0 36.5 -7t26 -16.5t24 -16.5t28.5 -7q23 0 36.5 12t19.5 24t6 14h73
q-2 -7 -12 -27t-29 -43.5t-45.5 -40.5t-59.5 -17z" />
    <glyph glyph-name="Ograve" unicode="&#xd2;" horiz-adv-x="729" 
d="M299 -5q-63 0 -112 24t-82.5 65.5t-50.5 94.5t-17 111q0 64 22 126.5t61.5 116t92.5 94.5t114.5 64.5t127.5 23.5q62 0 110.5 -24.5t82 -66.5t50 -95t16.5 -111q0 -64 -22 -125.5t-61 -115.5t-91.5 -95t-114 -64t-126.5 -23zM326 117q55 0 100.5 26.5t79 69.5t51 94.5
t17.5 100.5q0 50 -16.5 91.5t-49 67t-82.5 25.5q-55 0 -100.5 -26t-78.5 -69t-51.5 -94.5t-18.5 -101.5q0 -49 16.5 -91t49.5 -67.5t83 -25.5zM360 914h123l26 -119l-93 -18z" />
    <glyph glyph-name="Oacute" unicode="&#xd3;" horiz-adv-x="729" 
d="M299 -5q-63 0 -112 24t-82.5 65.5t-50.5 94.5t-17 111q0 64 22 126.5t61.5 116t92.5 94.5t114.5 64.5t127.5 23.5q62 0 110.5 -24.5t82 -66.5t50 -95t16.5 -111q0 -64 -22 -125.5t-61 -115.5t-91.5 -95t-114 -64t-126.5 -23zM326 117q55 0 100.5 26.5t79 69.5t51 94.5
t17.5 100.5q0 50 -16.5 91.5t-49 67t-82.5 25.5q-55 0 -100.5 -26t-78.5 -69t-51.5 -94.5t-18.5 -101.5q0 -49 16.5 -91t49.5 -67.5t83 -25.5zM505 780l-87 17l76 119h124z" />
    <glyph glyph-name="Ocircumflex" unicode="&#xd4;" horiz-adv-x="729" 
d="M299 -5q-63 0 -112 24t-82.5 65.5t-50.5 94.5t-17 111q0 64 22 126.5t61.5 116t92.5 94.5t114.5 64.5t127.5 23.5q62 0 110.5 -24.5t82 -66.5t50 -95t16.5 -111q0 -64 -22 -125.5t-61 -115.5t-91.5 -95t-114 -64t-126.5 -23zM326 117q55 0 100.5 26.5t79 69.5t51 94.5
t17.5 100.5q0 50 -16.5 91.5t-49 67t-82.5 25.5q-55 0 -100.5 -26t-78.5 -69t-51.5 -94.5t-18.5 -101.5q0 -49 16.5 -91t49.5 -67.5t83 -25.5zM327 813l124 101h96l81 -101l-77 -32l-67 63l-94 -63z" />
    <glyph glyph-name="Otilde" unicode="&#xd5;" horiz-adv-x="729" 
d="M299 -5q-63 0 -112 24t-82.5 65.5t-50.5 94.5t-17 111q0 64 22 126.5t61.5 116t92.5 94.5t114.5 64.5t127.5 23.5q62 0 110.5 -24.5t82 -66.5t50 -95t16.5 -111q0 -64 -22 -125.5t-61 -115.5t-91.5 -95t-114 -64t-126.5 -23zM326 117q55 0 100.5 26.5t79 69.5t51 94.5
t17.5 100.5q0 50 -16.5 91.5t-49 67t-82.5 25.5q-55 0 -100.5 -26t-78.5 -69t-51.5 -94.5t-18.5 -101.5q0 -49 16.5 -91t49.5 -67.5t83 -25.5zM534 786q-29 0 -47 11.5t-33 22.5t-36 11t-33 -11.5t-17 -23.5t-5 -13h-74q2 9 12 30t28.5 43.5t43.5 38.5t57 16q22 0 36.5 -7
t26 -16.5t24 -16.5t28.5 -7q23 0 36.5 12t19.5 24t6 14h73q-2 -7 -12 -27t-29 -43.5t-45.5 -40.5t-59.5 -17z" />
    <glyph glyph-name="Odieresis" unicode="&#xd6;" horiz-adv-x="729" 
d="M299 -5q-63 0 -112 24t-82.5 65.5t-50.5 94.5t-17 111q0 64 22 126.5t61.5 116t92.5 94.5t114.5 64.5t127.5 23.5q62 0 110.5 -24.5t82 -66.5t50 -95t16.5 -111q0 -64 -22 -125.5t-61 -115.5t-91.5 -95t-114 -64t-126.5 -23zM326 117q55 0 100.5 26.5t79 69.5t51 94.5
t17.5 100.5q0 50 -16.5 91.5t-49 67t-82.5 25.5q-55 0 -100.5 -26t-78.5 -69t-51.5 -94.5t-18.5 -101.5q0 -49 16.5 -91t49.5 -67.5t83 -25.5zM322 788l26 119h111l-26 -119h-111zM510 788l26 119h110l-25 -119h-111z" />
    <glyph glyph-name="multiply" unicode="&#xd7;" horiz-adv-x="487" 
d="M423 172l-85 -83l-103 103l-103 -103l-83 84l102 102l-98 99l85 83l98 -98l98 99l83 -84l-98 -99z" />
    <glyph glyph-name="Oslash" unicode="&#xd8;" horiz-adv-x="729" 
d="M299 -5q-63 0 -112 24t-82.5 65.5t-50.5 94.5t-17 111q0 64 22 126.5t61.5 116t92.5 94.5t114.5 64.5t127.5 23.5q62 0 110.5 -24.5t82 -66.5t50 -95t16.5 -111q0 -64 -22 -125.5t-61 -115.5t-91.5 -95t-114 -64t-126.5 -23zM326 117q55 0 100.5 26.5t79 69.5t51 94.5
t17.5 100.5q0 50 -16.5 91.5t-49 67t-82.5 25.5q-55 0 -100.5 -26t-78.5 -69t-51.5 -94.5t-18.5 -101.5q0 -49 16.5 -91t49.5 -67.5t83 -25.5zM763 710l-624 -710h-148l624 710h148z" />
    <glyph glyph-name="Ugrave" unicode="&#xd9;" horiz-adv-x="720" 
d="M295 -5q-85 0 -136.5 32t-74.5 86t-23 122q0 27 3 55.5t10 57.5l77 362h137l-77 -362q-5 -23 -7.5 -45t-2.5 -44q0 -40 11 -72t37.5 -51t70.5 -19q46 0 80.5 19.5t60 52.5t42 74.5t26.5 84.5l77 362h137l-77 -362q-15 -73 -46 -137t-77 -112.5t-108 -76t-140 -27.5z
M353 914h123l26 -119l-93 -18z" />
    <glyph glyph-name="Uacute" unicode="&#xda;" horiz-adv-x="720" 
d="M295 -5q-85 0 -136.5 32t-74.5 86t-23 122q0 27 3 55.5t10 57.5l77 362h137l-77 -362q-5 -23 -7.5 -45t-2.5 -44q0 -40 11 -72t37.5 -51t70.5 -19q46 0 80.5 19.5t60 52.5t42 74.5t26.5 84.5l77 362h137l-77 -362q-15 -73 -46 -137t-77 -112.5t-108 -76t-140 -27.5z
M492 780l-87 17l76 119h124z" />
    <glyph glyph-name="Ucircumflex" unicode="&#xdb;" horiz-adv-x="720" 
d="M295 -5q-85 0 -136.5 32t-74.5 86t-23 122q0 27 3 55.5t10 57.5l77 362h137l-77 -362q-5 -23 -7.5 -45t-2.5 -44q0 -40 11 -72t37.5 -51t70.5 -19q46 0 80.5 19.5t60 52.5t42 74.5t26.5 84.5l77 362h137l-77 -362q-15 -73 -46 -137t-77 -112.5t-108 -76t-140 -27.5z
M315 813l124 101h96l81 -101l-77 -32l-67 63l-94 -63z" />
    <glyph glyph-name="Udieresis" unicode="&#xdc;" horiz-adv-x="720" 
d="M295 -5q-85 0 -136.5 32t-74.5 86t-23 122q0 27 3 55.5t10 57.5l77 362h137l-77 -362q-5 -23 -7.5 -45t-2.5 -44q0 -40 11 -72t37.5 -51t70.5 -19q46 0 80.5 19.5t60 52.5t42 74.5t26.5 84.5l77 362h137l-77 -362q-15 -73 -46 -137t-77 -112.5t-108 -76t-140 -27.5z
M311 788l26 119h111l-26 -119h-111zM499 788l26 119h110l-25 -119h-111z" />
    <glyph glyph-name="Yacute" unicode="&#xdd;" horiz-adv-x="619" 
d="M225 250l-144 460h150l88 -342l236 342h149l-343 -462l-52 -248h-137zM428 780l-87 17l76 119h124z" />
    <glyph glyph-name="Thorn" unicode="&#xde;" horiz-adv-x="583" 
d="M161 710h137l-27 -128h132q55 0 93 -28.5t58.5 -73t20.5 -94.5t-20.5 -99.5t-57.5 -89t-85.5 -63.5t-102.5 -24h-139l-23 -110h-137zM328 231q21 0 40 12t34.5 32t24.5 45t9 52t-8.5 47t-23 31t-33.5 11h-126l-49 -230h132z" />
    <glyph glyph-name="germandbls" unicode="&#xdf;" horiz-adv-x="538" 
d="M200 117q43 0 78 14.5t56 43.5t21 72q0 41 -24.5 63.5t-58.5 22.5h-20l25 120h19q27 0 46.5 12.5t30 34t10.5 43.5q0 29 -17 43t-41 14q-26 0 -45.5 -13.5t-32 -36t-18.5 -51.5l-106 -499h-127l110 522q13 56 50 99.5t90.5 68t113.5 24.5q71 0 114 -36t43 -98
q0 -40 -17.5 -77t-44.5 -63.5t-55 -37.5q46 -14 70.5 -54t24.5 -95q0 -69 -27.5 -117.5t-73.5 -79t-103 -46t-117 -16.5z" />
    <glyph glyph-name="agrave" unicode="&#xe0;" horiz-adv-x="624" 
d="M201 -10q-58 0 -99.5 28.5t-64 77t-22.5 109.5q0 65 23 124t63.5 105t92 72.5t108.5 26.5q54 0 92 -28.5t52 -72.5l20 90h134l-78 -368q-1 -5 -2 -9.5t-1 -8.5q0 -21 24 -22l-24 -114q-18 -3 -31.5 -5t-23.5 -2q-36 0 -56 15t-20 45q0 4 1 9.5t2 13t3 15.5
q-38 -49 -90 -75t-103 -26zM261 104q17 0 36 6.5t37.5 18t34.5 28t27 35.5l26 125q-3 29 -18 52t-37 36.5t-47 13.5q-32 0 -61.5 -16.5t-52.5 -44t-36.5 -62t-13.5 -70.5q0 -34 13 -62t36.5 -44t55.5 -16zM263 730h123l26 -119l-93 -18z" />
    <glyph glyph-name="aacute" unicode="&#xe1;" horiz-adv-x="624" 
d="M201 -10q-58 0 -99.5 28.5t-64 77t-22.5 109.5q0 65 23 124t63.5 105t92 72.5t108.5 26.5q54 0 92 -28.5t52 -72.5l20 90h134l-78 -368q-1 -5 -2 -9.5t-1 -8.5q0 -21 24 -22l-24 -114q-18 -3 -31.5 -5t-23.5 -2q-36 0 -56 15t-20 45q0 4 1 9.5t2 13t3 15.5
q-38 -49 -90 -75t-103 -26zM261 104q17 0 36 6.5t37.5 18t34.5 28t27 35.5l26 125q-3 29 -18 52t-37 36.5t-47 13.5q-32 0 -61.5 -16.5t-52.5 -44t-36.5 -62t-13.5 -70.5q0 -34 13 -62t36.5 -44t55.5 -16zM405 596l-87 17l76 119h124z" />
    <glyph glyph-name="acircumflex" unicode="&#xe2;" horiz-adv-x="624" 
d="M201 -10q-58 0 -99.5 28.5t-64 77t-22.5 109.5q0 65 23 124t63.5 105t92 72.5t108.5 26.5q54 0 92 -28.5t52 -72.5l20 90h134l-78 -368q-1 -5 -2 -9.5t-1 -8.5q0 -21 24 -22l-24 -114q-18 -3 -31.5 -5t-23.5 -2q-36 0 -56 15t-20 45q0 4 1 9.5t2 13t3 15.5
q-38 -49 -90 -75t-103 -26zM261 104q17 0 36 6.5t37.5 18t34.5 28t27 35.5l26 125q-3 29 -18 52t-37 36.5t-47 13.5q-32 0 -61.5 -16.5t-52.5 -44t-36.5 -62t-13.5 -70.5q0 -34 13 -62t36.5 -44t55.5 -16zM231 629l124 101h96l81 -101l-77 -32l-67 63l-94 -63z" />
    <glyph glyph-name="atilde" unicode="&#xe3;" horiz-adv-x="624" 
d="M201 -10q-58 0 -99.5 28.5t-64 77t-22.5 109.5q0 65 23 124t63.5 105t92 72.5t108.5 26.5q54 0 92 -28.5t52 -72.5l20 90h134l-78 -368q-1 -5 -2 -9.5t-1 -8.5q0 -21 24 -22l-24 -114q-18 -3 -31.5 -5t-23.5 -2q-36 0 -56 15t-20 45q0 4 1 9.5t2 13t3 15.5
q-38 -49 -90 -75t-103 -26zM261 104q17 0 36 6.5t37.5 18t34.5 28t27 35.5l26 125q-3 29 -18 52t-37 36.5t-47 13.5q-32 0 -61.5 -16.5t-52.5 -44t-36.5 -62t-13.5 -70.5q0 -34 13 -62t36.5 -44t55.5 -16zM434 602q-29 0 -47 11.5t-33 22.5t-36 11t-33 -11.5t-17 -23.5
t-5 -13h-74q2 9 12 30t28.5 43.5t43.5 38.5t57 16q22 0 36.5 -7t26 -16.5t24 -16.5t28.5 -7q23 0 36.5 12t19.5 24t6 14h73q-2 -7 -12 -27t-29 -43.5t-45.5 -40.5t-59.5 -17z" />
    <glyph glyph-name="adieresis" unicode="&#xe4;" horiz-adv-x="624" 
d="M201 -10q-58 0 -99.5 28.5t-64 77t-22.5 109.5q0 65 23 124t63.5 105t92 72.5t108.5 26.5q54 0 92 -28.5t52 -72.5l20 90h134l-78 -368q-1 -5 -2 -9.5t-1 -8.5q0 -21 24 -22l-24 -114q-18 -3 -31.5 -5t-23.5 -2q-36 0 -56 15t-20 45q0 4 1 9.5t2 13t3 15.5
q-38 -49 -90 -75t-103 -26zM261 104q17 0 36 6.5t37.5 18t34.5 28t27 35.5l26 125q-3 29 -18 52t-37 36.5t-47 13.5q-32 0 -61.5 -16.5t-52.5 -44t-36.5 -62t-13.5 -70.5q0 -34 13 -62t36.5 -44t55.5 -16zM226 604l26 119h111l-26 -119h-111zM414 604l26 119h110l-25 -119
h-111z" />
    <glyph glyph-name="aring" unicode="&#xe5;" horiz-adv-x="624" 
d="M201 -10q-58 0 -99.5 28.5t-64 77t-22.5 109.5q0 65 23 124t63.5 105t92 72.5t108.5 26.5q54 0 92 -28.5t52 -72.5l20 90h134l-78 -368q-1 -5 -2 -9.5t-1 -8.5q0 -21 24 -22l-24 -114q-18 -3 -31.5 -5t-23.5 -2q-36 0 -56 15t-20 45q0 4 1 9.5t2 13t3 15.5
q-38 -49 -90 -75t-103 -26zM261 104q17 0 36 6.5t37.5 18t34.5 28t27 35.5l26 125q-3 29 -18 52t-37 36.5t-47 13.5q-32 0 -61.5 -16.5t-52.5 -44t-36.5 -62t-13.5 -70.5q0 -34 13 -62t36.5 -44t55.5 -16zM289 638q0 43 32.5 67.5t81.5 24.5q37 0 58.5 -16t21.5 -46
q0 -43 -32 -67.5t-81 -24.5q-38 0 -59.5 16.5t-21.5 45.5zM393 689q-18 0 -32 -11.5t-14 -30.5q0 -13 8.5 -21.5t22.5 -8.5q18 0 32.5 12.5t14.5 30.5q0 13 -9 21t-23 8z" />
    <glyph glyph-name="ae" unicode="&#xe6;" horiz-adv-x="894" 
d="M132 -10q-65 0 -103.5 39t-38.5 98q0 57 34 102t91.5 70.5t126.5 25.5q31 0 59 -5t48 -15q6 19 12 34t6 32q0 31 -22.5 50t-67.5 19q-39 0 -80 -15t-88 -44l-22 85q112 67 224 67q58 0 97.5 -19t59.5 -55q40 34 89 54t104 20q70 0 116.5 -29.5t70.5 -79t24 -110.5
q0 -38 -7.5 -60t-11.5 -35h-384q-1 -5 -1.5 -11.5t-0.5 -13.5q0 -33 13.5 -56.5t37 -36.5t53.5 -13q37 0 74 19.5t56 51.5l107 -32q-26 -40 -66.5 -71t-90 -48.5t-105.5 -17.5q-71 0 -120 29.5t-72 78.5q-30 -39 -70.5 -62.5t-80.5 -34.5t-71 -11zM192 88q18 0 39 5.5t41 15
t35.5 22t23.5 26.5q-1 5 -1.5 11.5t-0.5 13.5q0 13 1.5 26t3.5 25q-19 8 -42 12.5t-44 4.5q-34 0 -63.5 -12.5t-46.5 -34.5t-17 -50q0 -18 8 -33t23.5 -23.5t39.5 -8.5zM735 302q1 7 1 12.5v12.5q0 33 -11.5 57.5t-34 38t-53.5 13.5q-34 0 -65 -17t-54 -47t-34 -70h251z" />
    <glyph glyph-name="ccedilla" unicode="&#xe7;" horiz-adv-x="542" 
d="M229 -10q-70 0 -118 30t-72 80.5t-24 110.5q0 62 24 120t67.5 103.5t103.5 72t132 26.5q84 0 133.5 -37t65.5 -97l-138 -40q-10 29 -32 44.5t-53 15.5t-60.5 -14.5t-53 -41t-37 -61.5t-13.5 -75q0 -36 12 -64t34 -43.5t51 -15.5q22 0 43.5 8t39.5 22t29 32l122 -40
q-26 -39 -65 -70t-87.5 -48.5t-103.5 -17.5zM180 -201q-23 0 -48.5 7.5t-49.5 22.5l49 71q10 -10 22 -15.5t25 -5.5q23 0 39 15t16 41q0 18 -7 34t-21 31l49 29q22 -22 37.5 -48.5t15.5 -60.5q0 -33 -14.5 -60.5t-43 -44t-69.5 -16.5z" />
    <glyph glyph-name="egrave" unicode="&#xe8;" horiz-adv-x="551" 
d="M230 -10q-66 0 -114.5 28.5t-74 79t-25.5 114.5q0 65 25 123t70 102.5t105 70t130 25.5q57 0 99 -17t65 -49.5t23 -79.5q0 -83 -75.5 -126t-226.5 -43q-30 0 -65 1.5t-76 5.5l17 84q36 -3 66 -4.5t59 -1.5q65 0 102.5 9t54.5 26t17 40q0 20 -10 32.5t-27.5 19t-41.5 6.5
q-39 0 -71.5 -18.5t-56.5 -50.5t-37 -73t-13 -87q0 -34 11.5 -61.5t34.5 -42.5t59 -15q40 0 75.5 19t56.5 53l106 -33q-26 -40 -68 -71t-92 -48.5t-102 -17.5zM253 728h123l26 -119l-93 -18z" />
    <glyph glyph-name="eacute" unicode="&#xe9;" horiz-adv-x="551" 
d="M230 -10q-66 0 -114.5 28.5t-74 79t-25.5 114.5q0 65 25 123t70 102.5t105 70t130 25.5q57 0 99 -17t65 -49.5t23 -79.5q0 -83 -75.5 -126t-226.5 -43q-30 0 -65 1.5t-76 5.5l17 84q36 -3 66 -4.5t59 -1.5q65 0 102.5 9t54.5 26t17 40q0 20 -10 32.5t-27.5 19t-41.5 6.5
q-39 0 -71.5 -18.5t-56.5 -50.5t-37 -73t-13 -87q0 -34 11.5 -61.5t34.5 -42.5t59 -15q40 0 75.5 19t56.5 53l106 -33q-26 -40 -68 -71t-92 -48.5t-102 -17.5zM398 594l-87 17l76 119h124z" />
    <glyph glyph-name="ecircumflex" unicode="&#xea;" horiz-adv-x="551" 
d="M230 -10q-66 0 -114.5 28.5t-74 79t-25.5 114.5q0 65 25 123t70 102.5t105 70t130 25.5q57 0 99 -17t65 -49.5t23 -79.5q0 -83 -75.5 -126t-226.5 -43q-30 0 -65 1.5t-76 5.5l17 84q36 -3 66 -4.5t59 -1.5q65 0 102.5 9t54.5 26t17 40q0 20 -10 32.5t-27.5 19t-41.5 6.5
q-39 0 -71.5 -18.5t-56.5 -50.5t-37 -73t-13 -87q0 -34 11.5 -61.5t34.5 -42.5t59 -15q40 0 75.5 19t56.5 53l106 -33q-26 -40 -68 -71t-92 -48.5t-102 -17.5zM215 627l124 101h96l81 -101l-77 -32l-67 63l-94 -63z" />
    <glyph glyph-name="edieresis" unicode="&#xeb;" horiz-adv-x="551" 
d="M230 -10q-66 0 -114.5 28.5t-74 79t-25.5 114.5q0 65 25 123t70 102.5t105 70t130 25.5q57 0 99 -17t65 -49.5t23 -79.5q0 -83 -75.5 -126t-226.5 -43q-30 0 -65 1.5t-76 5.5l17 84q36 -3 66 -4.5t59 -1.5q65 0 102.5 9t54.5 26t17 40q0 20 -10 32.5t-27.5 19t-41.5 6.5
q-39 0 -71.5 -18.5t-56.5 -50.5t-37 -73t-13 -87q0 -34 11.5 -61.5t34.5 -42.5t59 -15q40 0 75.5 19t56.5 53l106 -33q-26 -40 -68 -71t-92 -48.5t-102 -17.5zM211 602l26 119h111l-26 -119h-111zM399 602l26 119h110l-25 -119h-111z" />
    <glyph glyph-name="igrave" unicode="&#xec;" horiz-adv-x="253" 
d="M107 524h134l-111 -524h-134zM101 730h123l26 -119l-93 -18z" />
    <glyph glyph-name="iacute" unicode="&#xed;" horiz-adv-x="253" 
d="M107 524h134l-111 -524h-134zM224 594l-87 17l76 119h124z" />
    <glyph glyph-name="icircumflex" unicode="&#xee;" horiz-adv-x="253" 
d="M107 524h134l-111 -524h-134zM45 629l124 101h96l81 -101l-77 -32l-67 63l-94 -63z" />
    <glyph glyph-name="idieresis" unicode="&#xef;" horiz-adv-x="253" 
d="M107 524h134l-111 -524h-134zM40 606l26 119h111l-26 -119h-111zM228 606l26 119h110l-25 -119h-111z" />
    <glyph glyph-name="eth" unicode="&#xf0;" horiz-adv-x="592" 
d="M565 375q0 -88 -26.5 -159t-73.5 -121.5t-108.5 -77.5t-131.5 -27q-64 0 -112 26t-74.5 72t-26.5 103q0 56 23.5 107t64 90.5t92 61.5t105.5 22q48 0 85.5 -21.5t56.5 -56.5q-1 17 -2.5 32.5t-3.5 31.5q-9 50 -32.5 96t-65 90t-107.5 86h170q58 -36 94.5 -94.5
t54.5 -126.5t18 -134zM151 208q0 -30 12.5 -53.5t35 -37t52.5 -13.5q31 0 59.5 12.5t50.5 35t35 50.5t13 60q0 30 -12.5 53t-35 36t-53.5 13t-59.5 -12t-50.5 -33.5t-34.5 -49.5t-12.5 -61zM582 660l-119 -61l-44 -13l-121 -64l-27 52l118 63l42 10l124 66z" />
    <glyph glyph-name="ntilde" unicode="&#xf1;" horiz-adv-x="582" 
d="M107 524h121l-21 -97q26 34 60.5 57.5t75 36t83.5 12.5q46 0 71 -16t35.5 -43.5t10.5 -61.5q0 -21 -3 -42t-7 -43l-69 -327h-134l62 294q4 15 5.5 28t1.5 25q0 35 -15.5 51.5t-41.5 16.5q-24 0 -52 -14t-53 -38.5t-42 -56.5l-65 -306h-134zM442 602q-29 0 -47 11.5
t-33 22.5t-36 11t-33 -11.5t-17 -23.5t-5 -13h-74q2 9 12 30t28.5 43.5t43.5 38.5t57 16q22 0 36.5 -7t26 -16.5t24 -16.5t28.5 -7q23 0 36.5 12t19.5 24t6 14h73q-2 -7 -12 -27t-29 -43.5t-45.5 -40.5t-59.5 -17z" />
    <glyph glyph-name="ograve" unicode="&#xf2;" horiz-adv-x="586" 
d="M234 -10q-76 0 -124.5 30t-71.5 80.5t-23 111.5q0 64 23.5 122t66.5 103t101.5 70.5t128.5 25.5q76 0 124.5 -30t71.5 -80t23 -112q0 -64 -23.5 -122t-66.5 -103t-101.5 -70.5t-128.5 -25.5zM254 104q31 0 60 14t51.5 40t36 61t13.5 76q0 37 -11.5 65t-34 43.5
t-54.5 15.5q-31 0 -59.5 -14t-51.5 -40t-36.5 -61.5t-13.5 -76.5q0 -36 11.5 -64t34 -43.5t54.5 -15.5zM246 730h123l26 -119l-93 -18z" />
    <glyph glyph-name="oacute" unicode="&#xf3;" horiz-adv-x="586" 
d="M234 -10q-76 0 -124.5 30t-71.5 80.5t-23 111.5q0 64 23.5 122t66.5 103t101.5 70.5t128.5 25.5q76 0 124.5 -30t71.5 -80t23 -112q0 -64 -23.5 -122t-66.5 -103t-101.5 -70.5t-128.5 -25.5zM254 104q31 0 60 14t51.5 40t36 61t13.5 76q0 37 -11.5 65t-34 43.5
t-54.5 15.5q-31 0 -59.5 -14t-51.5 -40t-36.5 -61.5t-13.5 -76.5q0 -36 11.5 -64t34 -43.5t54.5 -15.5zM397 594l-87 17l76 119h124z" />
    <glyph glyph-name="ocircumflex" unicode="&#xf4;" horiz-adv-x="586" 
d="M234 -10q-76 0 -124.5 30t-71.5 80.5t-23 111.5q0 64 23.5 122t66.5 103t101.5 70.5t128.5 25.5q76 0 124.5 -30t71.5 -80t23 -112q0 -64 -23.5 -122t-66.5 -103t-101.5 -70.5t-128.5 -25.5zM254 104q31 0 60 14t51.5 40t36 61t13.5 76q0 37 -11.5 65t-34 43.5
t-54.5 15.5q-31 0 -59.5 -14t-51.5 -40t-36.5 -61.5t-13.5 -76.5q0 -36 11.5 -64t34 -43.5t54.5 -15.5zM213 627l124 101h96l81 -101l-77 -32l-67 63l-94 -63z" />
    <glyph glyph-name="otilde" unicode="&#xf5;" horiz-adv-x="586" 
d="M234 -10q-76 0 -124.5 30t-71.5 80.5t-23 111.5q0 64 23.5 122t66.5 103t101.5 70.5t128.5 25.5q76 0 124.5 -30t71.5 -80t23 -112q0 -64 -23.5 -122t-66.5 -103t-101.5 -70.5t-128.5 -25.5zM254 104q31 0 60 14t51.5 40t36 61t13.5 76q0 37 -11.5 65t-34 43.5
t-54.5 15.5q-31 0 -59.5 -14t-51.5 -40t-36.5 -61.5t-13.5 -76.5q0 -36 11.5 -64t34 -43.5t54.5 -15.5zM421 600q-29 0 -47 11.5t-33 22.5t-36 11t-33 -11.5t-17 -23.5t-5 -13h-74q2 9 12 30t28.5 43.5t43.5 38.5t57 16q22 0 36.5 -7t26 -16.5t24 -16.5t28.5 -7
q23 0 36.5 12t19.5 24t6 14h73q-2 -7 -12 -27t-29 -43.5t-45.5 -40.5t-59.5 -17z" />
    <glyph glyph-name="odieresis" unicode="&#xf6;" horiz-adv-x="586" 
d="M234 -10q-76 0 -124.5 30t-71.5 80.5t-23 111.5q0 64 23.5 122t66.5 103t101.5 70.5t128.5 25.5q76 0 124.5 -30t71.5 -80t23 -112q0 -64 -23.5 -122t-66.5 -103t-101.5 -70.5t-128.5 -25.5zM254 104q31 0 60 14t51.5 40t36 61t13.5 76q0 37 -11.5 65t-34 43.5
t-54.5 15.5q-31 0 -59.5 -14t-51.5 -40t-36.5 -61.5t-13.5 -76.5q0 -36 11.5 -64t34 -43.5t54.5 -15.5zM209 602l26 119h111l-26 -119h-111zM397 602l26 119h110l-25 -119h-111z" />
    <glyph glyph-name="divide" unicode="&#xf7;" horiz-adv-x="520" 
d="M203 419v128h113v-128h-113zM203 48v129h113v-129h-113zM57 244v107h404v-107h-404z" />
    <glyph glyph-name="oslash" unicode="&#xf8;" horiz-adv-x="586" 
d="M227 -10q-69 0 -116.5 29.5t-71.5 79.5t-24 109q0 63 24.5 120.5t68.5 104t104 73.5t131 27q69 0 116 -29.5t71 -79.5t24 -110q0 -61 -24 -119.5t-68 -104.5t-104 -73t-131 -27zM251 104q32 0 61 15t52.5 41.5t37 62t13.5 75.5q0 36 -12 63t-34 42.5t-51 15.5
q-31 0 -60.5 -15t-52.5 -42t-37 -62t-14 -75q0 -36 12 -63t34 -42.5t51 -15.5zM117 123l31 -41l-90 -86h-74zM129 130l286 308l37 -29l-295 -315zM424 449l81 79h76l-116 -111z" />
    <glyph glyph-name="ugrave" unicode="&#xf9;" horiz-adv-x="595" 
d="M145 -10q-123 0 -123 128q0 18 2.5 37t7.5 41l70 328h133l-63 -299q-7 -29 -7 -50q0 -71 60 -71q24 0 48.5 10.5t49.5 31.5t46 53l69 325h134l-79 -370q-1 -5 -1.5 -9.5t-0.5 -8.5q0 -21 24 -22l-24 -114q-18 -3 -31.5 -5t-24.5 -2q-34 0 -54 14t-20 43q0 5 0.5 11
t2 15.5t4.5 21.5q-45 -53 -102.5 -80.5t-120.5 -27.5zM249 730h123l26 -119l-93 -18z" />
    <glyph glyph-name="uacute" unicode="&#xfa;" horiz-adv-x="595" 
d="M145 -10q-123 0 -123 128q0 18 2.5 37t7.5 41l70 328h133l-63 -299q-7 -29 -7 -50q0 -71 60 -71q24 0 48.5 10.5t49.5 31.5t46 53l69 325h134l-79 -370q-1 -5 -1.5 -9.5t-0.5 -8.5q0 -21 24 -22l-24 -114q-18 -3 -31.5 -5t-24.5 -2q-34 0 -54 14t-20 43q0 5 0.5 11
t2 15.5t4.5 21.5q-45 -53 -102.5 -80.5t-120.5 -27.5zM394 596l-87 17l76 119h124z" />
    <glyph glyph-name="ucircumflex" unicode="&#xfb;" horiz-adv-x="595" 
d="M145 -10q-123 0 -123 128q0 18 2.5 37t7.5 41l70 328h133l-63 -299q-7 -29 -7 -50q0 -71 60 -71q24 0 48.5 10.5t49.5 31.5t46 53l69 325h134l-79 -370q-1 -5 -1.5 -9.5t-0.5 -8.5q0 -21 24 -22l-24 -114q-18 -3 -31.5 -5t-24.5 -2q-34 0 -54 14t-20 43q0 5 0.5 11
t2 15.5t4.5 21.5q-45 -53 -102.5 -80.5t-120.5 -27.5zM217 629l124 101h96l81 -101l-77 -32l-67 63l-94 -63z" />
    <glyph glyph-name="udieresis" unicode="&#xfc;" horiz-adv-x="595" 
d="M145 -10q-123 0 -123 128q0 18 2.5 37t7.5 41l70 328h133l-63 -299q-7 -29 -7 -50q0 -71 60 -71q24 0 48.5 10.5t49.5 31.5t46 53l69 325h134l-79 -370q-1 -5 -1.5 -9.5t-0.5 -8.5q0 -21 24 -22l-24 -114q-18 -3 -31.5 -5t-24.5 -2q-34 0 -54 14t-20 43q0 5 0.5 11
t2 15.5t4.5 21.5q-45 -53 -102.5 -80.5t-120.5 -27.5zM209 604l26 119h111l-26 -119h-111zM397 604l26 119h110l-25 -119h-111z" />
    <glyph glyph-name="yacute" unicode="&#xfd;" horiz-adv-x="520" 
d="M-44 -126q40 3 65.5 10t44.5 22.5t39 43.5l29 39l-87 535h137l45 -408l34 56q31 51 54.5 95.5t41 86t30.5 83.5t24 87h130q-13 -48 -29 -90.5t-38 -88.5t-55.5 -104t-83.5 -138l-80 -129q-35 -56 -67.5 -94.5t-66 -62.5t-70.5 -34.5t-81 -11.5zM352 594l-87 17l76 119
h124z" />
    <glyph glyph-name="thorn" unicode="&#xfe;" horiz-adv-x="600" 
d="M-50 -213l196 923h137l-54 -251q33 35 76 54.5t92 19.5q57 0 97.5 -28.5t62.5 -77.5t22 -109q0 -64 -23 -123.5t-62.5 -105.5t-90.5 -72.5t-107 -26.5q-57 0 -95 27.5t-52 74.5l-65 -305h-134zM276 104q32 0 61.5 16.5t52 44t36 62t13.5 69.5t-12.5 63t-36 44t-55.5 16
q-18 0 -37 -6.5t-37.5 -18.5t-34 -28t-26.5 -35l-27 -123q6 -29 20 -53t35.5 -37.5t47.5 -13.5z" />
    <glyph glyph-name="ydieresis" unicode="&#xff;" horiz-adv-x="520" 
d="M-44 -126q40 3 65.5 10t44.5 22.5t39 43.5l29 39l-87 535h137l45 -408l34 56q31 51 54.5 95.5t41 86t30.5 83.5t24 87h130q-13 -48 -29 -90.5t-38 -88.5t-55.5 -104t-83.5 -138l-80 -129q-35 -56 -67.5 -94.5t-66 -62.5t-70.5 -34.5t-81 -11.5zM161 602l26 119h111
l-26 -119h-111zM349 602l26 119h110l-25 -119h-111z" />
    <glyph glyph-name="Amacron" unicode="&#x100;" horiz-adv-x="645" 
d="M352 710h123l103 -710h-142l-22 177h-229l-96 -177h-142zM411 274l-31 279l-152 -279h183zM294 818l18 83h287l-18 -83h-287z" />
    <glyph glyph-name="amacron" unicode="&#x101;" horiz-adv-x="624" 
d="M201 -10q-58 0 -99.5 28.5t-64 77t-22.5 109.5q0 65 23 124t63.5 105t92 72.5t108.5 26.5q54 0 92 -28.5t52 -72.5l20 90h134l-78 -368q-1 -5 -2 -9.5t-1 -8.5q0 -21 24 -22l-24 -114q-18 -3 -31.5 -5t-23.5 -2q-36 0 -56 15t-20 45q0 4 1 9.5t2 13t3 15.5
q-38 -49 -90 -75t-103 -26zM261 104q17 0 36 6.5t37.5 18t34.5 28t27 35.5l26 125q-3 29 -18 52t-37 36.5t-47 13.5q-32 0 -61.5 -16.5t-52.5 -44t-36.5 -62t-13.5 -70.5q0 -34 13 -62t36.5 -44t55.5 -16zM237 632l18 83h287l-18 -83h-287z" />
    <glyph glyph-name="Abreve" unicode="&#x102;" horiz-adv-x="645" 
d="M352 710h123l103 -710h-142l-22 177h-229l-96 -177h-142zM411 274l-31 279l-152 -279h183zM442 842q21 0 41.5 21t30.5 53h72q-8 -38 -31 -69t-55.5 -48t-69.5 -17q-48 0 -76 28t-28 73q0 9 1 17t3 16h72l-2 -10t-1 -10q0 -23 12 -38.5t31 -15.5z" />
    <glyph glyph-name="abreve" unicode="&#x103;" horiz-adv-x="624" 
d="M201 -10q-58 0 -99.5 28.5t-64 77t-22.5 109.5q0 65 23 124t63.5 105t92 72.5t108.5 26.5q54 0 92 -28.5t52 -72.5l20 90h134l-78 -368q-1 -5 -2 -9.5t-1 -8.5q0 -21 24 -22l-24 -114q-18 -3 -31.5 -5t-23.5 -2q-36 0 -56 15t-20 45q0 4 1 9.5t2 13t3 15.5
q-38 -49 -90 -75t-103 -26zM261 104q17 0 36 6.5t37.5 18t34.5 28t27 35.5l26 125q-3 29 -18 52t-37 36.5t-47 13.5q-32 0 -61.5 -16.5t-52.5 -44t-36.5 -62t-13.5 -70.5q0 -34 13 -62t36.5 -44t55.5 -16zM394 656q21 0 41.5 21t30.5 53h72q-8 -38 -31 -69t-55.5 -48
t-69.5 -17q-48 0 -76 28t-28 73q0 9 1 17t3 16h72l-2 -10t-1 -10q0 -23 12 -38.5t31 -15.5z" />
    <glyph glyph-name="Aogonek" unicode="&#x104;" horiz-adv-x="645" 
d="M352 710h123l103 -710h-142l-22 177h-229l-96 -177h-142zM411 274l-31 279l-152 -279h183zM413 -124q0 36 29.5 73t87.5 72h42l6 -21q-38 -29 -58 -51.5t-20 -42.5q0 -14 11.5 -21.5t33.5 -8.5l-43 -76q-46 6 -67.5 28t-21.5 48z" />
    <glyph glyph-name="aogonek" unicode="&#x105;" horiz-adv-x="624" 
d="M201 -10q-58 0 -99.5 28.5t-64 77t-22.5 109.5q0 65 23 124t63.5 105t92 72.5t108.5 26.5q54 0 92 -28.5t52 -72.5l20 90h134l-78 -368q-1 -5 -2 -9.5t-1 -8.5q0 -21 24 -22l-24 -114q-18 -3 -31.5 -5t-23.5 -2q-36 0 -56 15t-20 45q0 4 1 9.5t2 13t3 15.5
q-38 -49 -90 -75t-103 -26zM261 104q17 0 36 6.5t37.5 18t34.5 28t27 35.5l26 125q-3 29 -18 52t-37 36.5t-47 13.5q-32 0 -61.5 -16.5t-52.5 -44t-36.5 -62t-13.5 -70.5q0 -34 13 -62t36.5 -44t55.5 -16zM355 -124q0 36 29.5 73t87.5 72h42l6 -21q-38 -29 -58 -51.5
t-20 -42.5q0 -14 11.5 -21.5t33.5 -8.5l-43 -76q-46 6 -67.5 28t-21.5 48z" />
    <glyph glyph-name="Cacute" unicode="&#x106;" horiz-adv-x="658" 
d="M301 -6q-64 0 -113.5 25t-83 67.5t-50.5 96.5t-17 110q0 60 19.5 120t56 114t87 96t113.5 66.5t136 24.5q98 0 157.5 -43.5t78.5 -111.5l-118 -71q-9 41 -31.5 63.5t-51.5 31.5t-60 9q-62 0 -108 -26.5t-77 -69.5t-46.5 -93.5t-15.5 -97.5q0 -51 17 -94t51 -69t83 -26
q31 0 64.5 11.5t64.5 35t54 61.5l99 -65q-34 -54 -86 -91t-110.5 -55.5t-112.5 -18.5zM480 782l-87 17l76 119h124z" />
    <glyph glyph-name="cacute" unicode="&#x107;" horiz-adv-x="542" 
d="M229 -10q-70 0 -118 30t-72 80.5t-24 110.5q0 62 24 120t67.5 103.5t103.5 72t132 26.5q84 0 133.5 -37t65.5 -97l-138 -40q-10 29 -32 44.5t-53 15.5t-60.5 -14.5t-53 -41t-37 -61.5t-13.5 -75q0 -36 12 -64t34 -43.5t51 -15.5q22 0 43.5 8t39.5 22t29 32l122 -40
q-26 -39 -65 -70t-87.5 -48.5t-103.5 -17.5zM390 594l-87 17l76 119h124z" />
    <glyph glyph-name="Ccircumflex" unicode="&#x108;" horiz-adv-x="658" 
d="M301 -6q-64 0 -113.5 25t-83 67.5t-50.5 96.5t-17 110q0 60 19.5 120t56 114t87 96t113.5 66.5t136 24.5q98 0 157.5 -43.5t78.5 -111.5l-118 -71q-9 41 -31.5 63.5t-51.5 31.5t-60 9q-62 0 -108 -26.5t-77 -69.5t-46.5 -93.5t-15.5 -97.5q0 -51 17 -94t51 -69t83 -26
q31 0 64.5 11.5t64.5 35t54 61.5l99 -65q-34 -54 -86 -91t-110.5 -55.5t-112.5 -18.5zM306 815l124 101h96l81 -101l-77 -32l-67 63l-94 -63z" />
    <glyph glyph-name="ccircumflex" unicode="&#x109;" horiz-adv-x="542" 
d="M229 -10q-70 0 -118 30t-72 80.5t-24 110.5q0 62 24 120t67.5 103.5t103.5 72t132 26.5q84 0 133.5 -37t65.5 -97l-138 -40q-10 29 -32 44.5t-53 15.5t-60.5 -14.5t-53 -41t-37 -61.5t-13.5 -75q0 -36 12 -64t34 -43.5t51 -15.5q22 0 43.5 8t39.5 22t29 32l122 -40
q-26 -39 -65 -70t-87.5 -48.5t-103.5 -17.5zM215 627l124 101h96l81 -101l-77 -32l-67 63l-94 -63z" />
    <glyph glyph-name="Cdotaccent" unicode="&#x10a;" horiz-adv-x="658" 
d="M301 -6q-64 0 -113.5 25t-83 67.5t-50.5 96.5t-17 110q0 60 19.5 120t56 114t87 96t113.5 66.5t136 24.5q98 0 157.5 -43.5t78.5 -111.5l-118 -71q-9 41 -31.5 63.5t-51.5 31.5t-60 9q-62 0 -108 -26.5t-77 -69.5t-46.5 -93.5t-15.5 -97.5q0 -51 17 -94t51 -69t83 -26
q31 0 64.5 11.5t64.5 35t54 61.5l99 -65q-34 -54 -86 -91t-110.5 -55.5t-112.5 -18.5zM394 790l28 126h120l-27 -126h-121z" />
    <glyph glyph-name="cdotaccent" unicode="&#x10b;" horiz-adv-x="542" 
d="M229 -10q-70 0 -118 30t-72 80.5t-24 110.5q0 62 24 120t67.5 103.5t103.5 72t132 26.5q84 0 133.5 -37t65.5 -97l-138 -40q-10 29 -32 44.5t-53 15.5t-60.5 -14.5t-53 -41t-37 -61.5t-13.5 -75q0 -36 12 -64t34 -43.5t51 -15.5q22 0 43.5 8t39.5 22t29 32l122 -40
q-26 -39 -65 -70t-87.5 -48.5t-103.5 -17.5zM299 602l28 126h120l-27 -126h-121z" />
    <glyph glyph-name="Ccaron" unicode="&#x10c;" horiz-adv-x="658" 
d="M301 -6q-64 0 -113.5 25t-83 67.5t-50.5 96.5t-17 110q0 60 19.5 120t56 114t87 96t113.5 66.5t136 24.5q98 0 157.5 -43.5t78.5 -111.5l-118 -71q-9 41 -31.5 63.5t-51.5 31.5t-60 9q-62 0 -108 -26.5t-77 -69.5t-46.5 -93.5t-15.5 -97.5q0 -51 17 -94t51 -69t83 -26
q31 0 64.5 11.5t64.5 35t54 61.5l99 -65q-34 -54 -86 -91t-110.5 -55.5t-112.5 -18.5zM320 884l76 32l67 -63l94 63l63 -32l-124 -101h-96z" />
    <glyph glyph-name="ccaron" unicode="&#x10d;" horiz-adv-x="542" 
d="M229 -10q-70 0 -118 30t-72 80.5t-24 110.5q0 62 24 120t67.5 103.5t103.5 72t132 26.5q84 0 133.5 -37t65.5 -97l-138 -40q-10 29 -32 44.5t-53 15.5t-60.5 -14.5t-53 -41t-37 -61.5t-13.5 -75q0 -36 12 -64t34 -43.5t51 -15.5q22 0 43.5 8t39.5 22t29 32l122 -40
q-26 -39 -65 -70t-87.5 -48.5t-103.5 -17.5zM225 696l76 32l67 -63l94 63l63 -32l-124 -101h-96z" />
    <glyph glyph-name="Dcaron" unicode="&#x10e;" horiz-adv-x="692" 
d="M161 710h247q92 0 151 -36.5t88 -98.5t29 -140q0 -94 -31.5 -173.5t-88 -138t-133 -91t-166.5 -32.5h-247zM282 121q58 0 104.5 23.5t79.5 65t50.5 94.5t17.5 111q0 52 -17 91t-50.5 61t-84.5 22h-110l-99 -468h109zM283 883l76 32l67 -63l94 63l63 -32l-124 -101h-96z
" />
    <glyph glyph-name="dcaron" unicode="&#x10f;" horiz-adv-x="624" 
d="M201 -10q-58 0 -99.5 28.5t-64 77t-22.5 109.5q0 65 23 124t63.5 105t92 72.5t108.5 26.5q54 0 92 -28.5t52 -72.5l64 298h134l-122 -576q-1 -5 -2 -9.5t-1 -8.5q0 -21 24 -22l-24 -114q-18 -3 -31.5 -5t-23.5 -2q-35 0 -55.5 14.5t-20.5 42.5q0 5 1 11t2 13.5t3 16.5
q-38 -49 -90 -75t-103 -26zM261 104q17 0 36 6.5t37.5 18t34.5 28t27 35.5l26 125q-3 29 -18 52t-37 36.5t-47 13.5q-32 0 -61.5 -16.5t-52.5 -44t-36.5 -62t-13.5 -70.5q0 -34 13 -62t36.5 -44t55.5 -16zM637 611l76 119h124l-120 -145z" />
    <glyph glyph-name="Dcroat" unicode="&#x110;" horiz-adv-x="698" 
d="M57 407h312l-22 -100h-311zM166 710h247q92 0 151.5 -36.5t88 -98.5t28.5 -140q0 -94 -31.5 -173.5t-88 -138t-133 -91t-166.5 -32.5h-247zM288 121q57 0 103.5 23.5t79.5 64.5t51 94t18 112q0 52 -17.5 91t-51 61t-84.5 22h-109l-100 -468h110z" />
    <glyph glyph-name="dcroat" unicode="&#x111;" horiz-adv-x="624" 
d="M415 671h287l-17 -80h-287zM201 -10q-58 0 -99.5 28.5t-64 77t-22.5 109.5q0 65 23 124t63.5 105t92 72.5t108.5 26.5q54 0 92 -28.5t52 -72.5l64 298h134l-122 -576q-1 -5 -2 -9.5t-1 -8.5q0 -21 24 -22l-24 -114q-18 -3 -31.5 -5t-23.5 -2q-35 0 -55.5 14.5t-20.5 42.5
q0 5 1 11t2 13.5t3 16.5q-38 -49 -90 -75t-103 -26zM261 104q17 0 36 6.5t37.5 18t34.5 28t27 35.5l26 125q-3 29 -18 52t-37 36.5t-47 13.5q-32 0 -61.5 -16.5t-52.5 -44t-36.5 -62t-13.5 -70.5q0 -34 13 -62t36.5 -44t55.5 -16z" />
    <glyph glyph-name="Emacron" unicode="&#x112;" horiz-adv-x="578" 
d="M161 710h460l-25 -121h-324l-36 -171h279l-24 -112h-279l-39 -185h332l-26 -121h-469zM263 818l18 83h287l-18 -83h-287z" />
    <glyph glyph-name="emacron" unicode="&#x113;" horiz-adv-x="551" 
d="M230 -10q-66 0 -114.5 28.5t-74 79t-25.5 114.5q0 65 25 123t70 102.5t105 70t130 25.5q57 0 99 -17t65 -49.5t23 -79.5q0 -83 -75.5 -126t-226.5 -43q-30 0 -65 1.5t-76 5.5l17 84q36 -3 66 -4.5t59 -1.5q65 0 102.5 9t54.5 26t17 40q0 20 -10 32.5t-27.5 19t-41.5 6.5
q-39 0 -71.5 -18.5t-56.5 -50.5t-37 -73t-13 -87q0 -34 11.5 -61.5t34.5 -42.5t59 -15q40 0 75.5 19t56.5 53l106 -33q-26 -40 -68 -71t-92 -48.5t-102 -17.5zM222 630l18 83h287l-18 -83h-287z" />
    <glyph glyph-name="Ebreve" unicode="&#x114;" horiz-adv-x="578" 
d="M161 710h460l-25 -121h-324l-36 -171h279l-24 -112h-279l-39 -185h332l-26 -121h-469zM411 842q21 0 41.5 21t30.5 53h72q-8 -38 -31 -69t-55.5 -48t-69.5 -17q-48 0 -76 28t-28 73q0 9 1 17t3 16h72l-2 -10t-1 -10q0 -23 12 -38.5t31 -15.5z" />
    <glyph glyph-name="ebreve" unicode="&#x115;" horiz-adv-x="551" 
d="M230 -10q-66 0 -114.5 28.5t-74 79t-25.5 114.5q0 65 25 123t70 102.5t105 70t130 25.5q57 0 99 -17t65 -49.5t23 -79.5q0 -83 -75.5 -126t-226.5 -43q-30 0 -65 1.5t-76 5.5l17 84q36 -3 66 -4.5t59 -1.5q65 0 102.5 9t54.5 26t17 40q0 20 -10 32.5t-27.5 19t-41.5 6.5
q-39 0 -71.5 -18.5t-56.5 -50.5t-37 -73t-13 -87q0 -34 11.5 -61.5t34.5 -42.5t59 -15q40 0 75.5 19t56.5 53l106 -33q-26 -40 -68 -71t-92 -48.5t-102 -17.5zM370 654q21 0 41.5 21t30.5 53h72q-8 -38 -31 -69t-55.5 -48t-69.5 -17q-48 0 -76 28t-28 73q0 9 1 17t3 16h72
l-2 -10t-1 -10q0 -23 12 -38.5t31 -15.5z" />
    <glyph glyph-name="Edotaccent" unicode="&#x116;" horiz-adv-x="578" 
d="M161 710h460l-25 -121h-324l-36 -171h279l-24 -112h-279l-39 -185h332l-26 -121h-469zM340 790l28 126h120l-27 -126h-121z" />
    <glyph glyph-name="edotaccent" unicode="&#x117;" horiz-adv-x="551" 
d="M230 -10q-66 0 -114.5 28.5t-74 79t-25.5 114.5q0 65 25 123t70 102.5t105 70t130 25.5q57 0 99 -17t65 -49.5t23 -79.5q0 -83 -75.5 -126t-226.5 -43q-30 0 -65 1.5t-76 5.5l17 84q36 -3 66 -4.5t59 -1.5q65 0 102.5 9t54.5 26t17 40q0 20 -10 32.5t-27.5 19t-41.5 6.5
q-39 0 -71.5 -18.5t-56.5 -50.5t-37 -73t-13 -87q0 -34 11.5 -61.5t34.5 -42.5t59 -15q40 0 75.5 19t56.5 53l106 -33q-26 -40 -68 -71t-92 -48.5t-102 -17.5zM299 602l28 126h120l-27 -126h-121z" />
    <glyph glyph-name="Eogonek" unicode="&#x118;" horiz-adv-x="578" 
d="M161 710h460l-25 -121h-324l-36 -171h279l-24 -112h-279l-39 -185h332l-26 -121h-469zM315 -124q0 36 29.5 73t87.5 72h42l6 -21q-38 -29 -58 -51.5t-20 -42.5q0 -14 11.5 -21.5t33.5 -8.5l-43 -76q-46 6 -67.5 28t-21.5 48z" />
    <glyph glyph-name="eogonek" unicode="&#x119;" horiz-adv-x="551" 
d="M230 -10q-66 0 -114.5 28.5t-74 79t-25.5 114.5q0 65 25 123t70 102.5t105 70t130 25.5q57 0 99 -17t65 -49.5t23 -79.5q0 -83 -75.5 -126t-226.5 -43q-30 0 -65 1.5t-76 5.5l17 84q36 -3 66 -4.5t59 -1.5q65 0 102.5 9t54.5 26t17 40q0 20 -10 32.5t-27.5 19t-41.5 6.5
q-39 0 -71.5 -18.5t-56.5 -50.5t-37 -73t-13 -87q0 -34 11.5 -61.5t34.5 -42.5t59 -15q40 0 75.5 19t56.5 53l106 -33q-26 -40 -68 -71t-92 -48.5t-102 -17.5zM142 -124q0 36 29.5 73t87.5 72h42l6 -21q-38 -29 -58 -51.5t-20 -42.5q0 -14 11.5 -21.5t33.5 -8.5l-43 -76
q-46 6 -67.5 28t-21.5 48z" />
    <glyph glyph-name="Ecaron" unicode="&#x11a;" horiz-adv-x="578" 
d="M161 710h460l-25 -121h-324l-36 -171h279l-24 -112h-279l-39 -185h332l-26 -121h-469zM266 884l76 32l67 -63l94 63l63 -32l-124 -101h-96z" />
    <glyph glyph-name="ecaron" unicode="&#x11b;" horiz-adv-x="551" 
d="M230 -10q-66 0 -114.5 28.5t-74 79t-25.5 114.5q0 65 25 123t70 102.5t105 70t130 25.5q57 0 99 -17t65 -49.5t23 -79.5q0 -83 -75.5 -126t-226.5 -43q-30 0 -65 1.5t-76 5.5l17 84q36 -3 66 -4.5t59 -1.5q65 0 102.5 9t54.5 26t17 40q0 20 -10 32.5t-27.5 19t-41.5 6.5
q-39 0 -71.5 -18.5t-56.5 -50.5t-37 -73t-13 -87q0 -34 11.5 -61.5t34.5 -42.5t59 -15q40 0 75.5 19t56.5 53l106 -33q-26 -40 -68 -71t-92 -48.5t-102 -17.5zM225 696l76 32l67 -63l94 63l63 -32l-124 -101h-96z" />
    <glyph glyph-name="Gcircumflex" unicode="&#x11c;" horiz-adv-x="697" 
d="M291 -5q-56 0 -103 22t-80.5 61.5t-52 93t-18.5 115.5q0 86 34.5 163t93.5 137t133 94t155 34q95 0 154.5 -42.5t79.5 -112.5l-119 -76q-13 53 -52.5 81t-92.5 28q-49 0 -93.5 -24.5t-78.5 -65.5t-53.5 -93t-19.5 -108q0 -52 18 -94t52 -66.5t81 -24.5q51 0 103 28
t103 82l-29 -136q-52 -49 -105 -72.5t-110 -23.5zM533 264h-135l22 101h249l-78 -365h-114zM325 813l124 101h96l81 -101l-77 -32l-67 63l-94 -63z" />
    <glyph glyph-name="gcircumflex" unicode="&#x11d;" horiz-adv-x="611" 
d="M162 -223q-82 0 -132.5 28.5t-79.5 80.5l88 71q20 -37 58 -58t87 -21q39 0 75 15.5t63.5 48t37.5 83.5l14 66q-34 -45 -83.5 -69.5t-99.5 -24.5q-55 0 -94.5 28t-59.5 75.5t-20 105.5q0 65 23.5 124t65 104.5t95 72t112.5 26.5q58 0 95.5 -27.5t55.5 -73.5l19 92h118
l-107 -499q-16 -78 -64 -133.5t-117 -85t-150 -29.5zM259 104q20 0 39.5 7t37.5 19t33 28.5t26 33.5l26 125q-4 31 -19 54t-36.5 35.5t-47.5 12.5q-33 0 -62 -17t-52 -44.5t-36 -61.5t-13 -70q0 -33 13 -61.5t36.5 -44.5t54.5 -16zM218 627l124 101h96l81 -101l-77 -32
l-67 63l-94 -63z" />
    <glyph glyph-name="Gbreve" unicode="&#x11e;" horiz-adv-x="697" 
d="M291 -5q-56 0 -103 22t-80.5 61.5t-52 93t-18.5 115.5q0 86 34.5 163t93.5 137t133 94t155 34q95 0 154.5 -42.5t79.5 -112.5l-119 -76q-13 53 -52.5 81t-92.5 28q-49 0 -93.5 -24.5t-78.5 -65.5t-53.5 -93t-19.5 -108q0 -52 18 -94t52 -66.5t81 -24.5q51 0 103 28
t103 82l-29 -136q-52 -49 -105 -72.5t-110 -23.5zM533 264h-135l22 101h249l-78 -365h-114zM479 840q21 0 41.5 21t30.5 53h72q-8 -38 -31 -69t-55.5 -48t-69.5 -17q-48 0 -76 28t-28 73q0 9 1 17t3 16h72l-2 -10t-1 -10q0 -23 12 -38.5t31 -15.5z" />
    <glyph glyph-name="gbreve" unicode="&#x11f;" horiz-adv-x="611" 
d="M162 -223q-82 0 -132.5 28.5t-79.5 80.5l88 71q20 -37 58 -58t87 -21q39 0 75 15.5t63.5 48t37.5 83.5l14 66q-34 -45 -83.5 -69.5t-99.5 -24.5q-55 0 -94.5 28t-59.5 75.5t-20 105.5q0 65 23.5 124t65 104.5t95 72t112.5 26.5q58 0 95.5 -27.5t55.5 -73.5l19 92h118
l-107 -499q-16 -78 -64 -133.5t-117 -85t-150 -29.5zM259 104q20 0 39.5 7t37.5 19t33 28.5t26 33.5l26 125q-4 31 -19 54t-36.5 35.5t-47.5 12.5q-33 0 -62 -17t-52 -44.5t-36 -61.5t-13 -70q0 -33 13 -61.5t36.5 -44.5t54.5 -16zM373 654q21 0 41.5 21t30.5 53h72
q-8 -38 -31 -69t-55.5 -48t-69.5 -17q-48 0 -76 28t-28 73q0 9 1 17t3 16h72l-2 -10t-1 -10q0 -23 12 -38.5t31 -15.5z" />
    <glyph glyph-name="Gdotaccent" unicode="&#x120;" horiz-adv-x="697" 
d="M291 -5q-56 0 -103 22t-80.5 61.5t-52 93t-18.5 115.5q0 86 34.5 163t93.5 137t133 94t155 34q95 0 154.5 -42.5t79.5 -112.5l-119 -76q-13 53 -52.5 81t-92.5 28q-49 0 -93.5 -24.5t-78.5 -65.5t-53.5 -93t-19.5 -108q0 -52 18 -94t52 -66.5t81 -24.5q51 0 103 28
t103 82l-29 -136q-52 -49 -105 -72.5t-110 -23.5zM533 264h-135l22 101h249l-78 -365h-114zM409 788l28 126h120l-27 -126h-121z" />
    <glyph glyph-name="gdotaccent" unicode="&#x121;" horiz-adv-x="611" 
d="M162 -223q-82 0 -132.5 28.5t-79.5 80.5l88 71q20 -37 58 -58t87 -21q39 0 75 15.5t63.5 48t37.5 83.5l14 66q-34 -45 -83.5 -69.5t-99.5 -24.5q-55 0 -94.5 28t-59.5 75.5t-20 105.5q0 65 23.5 124t65 104.5t95 72t112.5 26.5q58 0 95.5 -27.5t55.5 -73.5l19 92h118
l-107 -499q-16 -78 -64 -133.5t-117 -85t-150 -29.5zM259 104q20 0 39.5 7t37.5 19t33 28.5t26 33.5l26 125q-4 31 -19 54t-36.5 35.5t-47.5 12.5q-33 0 -62 -17t-52 -44.5t-36 -61.5t-13 -70q0 -33 13 -61.5t36.5 -44.5t54.5 -16zM302 602l28 126h120l-27 -126h-121z" />
    <glyph glyph-name="uni0122" unicode="&#x122;" horiz-adv-x="697" 
d="M291 -5q-56 0 -103 22t-80.5 61.5t-52 93t-18.5 115.5q0 86 34.5 163t93.5 137t133 94t155 34q95 0 154.5 -42.5t79.5 -112.5l-119 -76q-13 53 -52.5 81t-92.5 28q-49 0 -93.5 -24.5t-78.5 -65.5t-53.5 -93t-19.5 -108q0 -52 18 -94t52 -66.5t81 -24.5q51 0 103 28
t103 82l-29 -136q-52 -49 -105 -72.5t-110 -23.5zM533 264h-135l22 101h249l-78 -365h-114zM216 -213l43 72h-40l20 94h113l-20 -94l-55 -72h-61z" />
    <glyph glyph-name="uni0123" unicode="&#x123;" horiz-adv-x="611" 
d="M162 -223q-82 0 -132.5 28.5t-79.5 80.5l88 71q20 -37 58 -58t87 -21q39 0 75 15.5t63.5 48t37.5 83.5l14 66q-34 -45 -83.5 -69.5t-99.5 -24.5q-55 0 -94.5 28t-59.5 75.5t-20 105.5q0 65 23.5 124t65 104.5t95 72t112.5 26.5q58 0 95.5 -27.5t55.5 -73.5l19 92h118
l-107 -499q-16 -78 -64 -133.5t-117 -85t-150 -29.5zM259 104q20 0 39.5 7t37.5 19t33 28.5t26 33.5l26 125q-4 31 -19 54t-36.5 35.5t-47.5 12.5q-33 0 -62 -17t-52 -44.5t-36 -61.5t-13 -70q0 -33 13 -61.5t36.5 -44.5t54.5 -16zM438 728l-41 -63h39l-23 -84h-105l23 84
l52 63h55z" />
    <glyph glyph-name="Hcircumflex" unicode="&#x124;" horiz-adv-x="718" 
d="M161 710h137l-61 -287h296l61 287h137l-151 -710h-137l64 303h-296l-64 -303h-137zM324 815l124 101h96l81 -101l-77 -32l-67 63l-94 -63z" />
    <glyph glyph-name="hcircumflex" unicode="&#x125;" horiz-adv-x="582" 
d="M270 814l115 100h89l74 -100l-70 -32l-63 62l-87 -62zM151 730h134l-65 -303q38 50 91 78t109 28q47 0 73.5 -16.5t38 -44t11.5 -62.5q0 -20 -2.5 -41t-7.5 -42l-69 -327h-134l62 294q3 14 4.5 26t1.5 23q0 37 -16 54.5t-45 17.5q-21 0 -48.5 -14t-52.5 -38.5t-41 -56.5
l-65 -306h-134z" />
    <glyph glyph-name="Hbar" unicode="&#x126;" horiz-adv-x="726" 
d="M96 609h666l-14 -66h-666zM165 710h138l-61 -287h296l61 287h137l-151 -710h-137l64 303h-296l-64 -303h-138z" />
    <glyph glyph-name="hbar" unicode="&#x127;" horiz-adv-x="582" 
d="M79 671h287l-17 -80h-287zM151 730h134l-65 -303q38 50 91 78t109 28q47 0 73.5 -16.5t38 -44t11.5 -62.5q0 -20 -2.5 -41t-7.5 -42l-69 -327h-134l62 294q3 14 4.5 26t1.5 23q0 37 -16 54.5t-45 17.5q-21 0 -48.5 -14t-52.5 -38.5t-41 -56.5l-65 -306h-134z" />
    <glyph glyph-name="Itilde" unicode="&#x128;" horiz-adv-x="285" 
d="M161 709h137l-151 -709h-137zM313 788q-29 0 -47 11.5t-33 22.5t-36 11t-33 -11.5t-17 -23.5t-5 -13h-74q2 9 12 30t28.5 43.5t43.5 38.5t57 16q22 0 36.5 -7t26 -16.5t24 -16.5t28.5 -7q23 0 36.5 12t19.5 24t6 14h73q-2 -7 -12 -27t-29 -43.5t-45.5 -40.5t-59.5 -17z
" />
    <glyph glyph-name="itilde" unicode="&#x129;" horiz-adv-x="253" 
d="M107 524h134l-111 -524h-134zM248 602q-29 0 -47 11.5t-33 22.5t-36 11t-33 -11.5t-17 -23.5t-5 -13h-74q2 9 12 30t28.5 43.5t43.5 38.5t57 16q22 0 36.5 -7t26 -16.5t24 -16.5t28.5 -7q23 0 36.5 12t19.5 24t6 14h73q-2 -7 -12 -27t-29 -43.5t-45.5 -40.5t-59.5 -17z
" />
    <glyph glyph-name="Imacron" unicode="&#x12a;" horiz-adv-x="285" 
d="M161 709h137l-151 -709h-137zM109 818l18 83h287l-18 -83h-287z" />
    <glyph glyph-name="imacron" unicode="&#x12b;" horiz-adv-x="253" 
d="M107 524h134l-111 -524h-134zM52 632l18 83h287l-18 -83h-287z" />
    <glyph glyph-name="Ibreve" unicode="&#x12c;" horiz-adv-x="285" 
d="M161 709h137l-151 -709h-137zM260 842q21 0 41.5 21t30.5 53h72q-8 -38 -31 -69t-55.5 -48t-69.5 -17q-48 0 -76 28t-28 73q0 9 1 17t3 16h72l-2 -10t-1 -10q0 -23 12 -38.5t31 -15.5z" />
    <glyph glyph-name="ibreve" unicode="&#x12d;" horiz-adv-x="253" 
d="M107 524h134l-111 -524h-134zM200 656q21 0 41.5 21t30.5 53h72q-8 -38 -31 -69t-55.5 -48t-69.5 -17q-48 0 -76 28t-28 73q0 9 1 17t3 16h72l-2 -10t-1 -10q0 -23 12 -38.5t31 -15.5z" />
    <glyph glyph-name="Iogonek" unicode="&#x12e;" horiz-adv-x="285" 
d="M161 709h137l-151 -709h-137zM-18 -124q0 36 29.5 73t87.5 72h42l6 -21q-38 -29 -58 -51.5t-20 -42.5q0 -14 11.5 -21.5t33.5 -8.5l-43 -76q-46 6 -67.5 28t-21.5 48z" />
    <glyph glyph-name="iogonek" unicode="&#x12f;" horiz-adv-x="253" 
d="M107 524h134l-111 -524h-134zM151 730h134l-28 -133h-134zM-35 -124q0 36 29.5 73t87.5 72h42l6 -21q-38 -29 -58 -51.5t-20 -42.5q0 -14 11.5 -21.5t33.5 -8.5l-43 -76q-46 6 -67.5 28t-21.5 48z" />
    <glyph glyph-name="Idotaccent" unicode="&#x130;" horiz-adv-x="285" 
d="M161 709h137l-151 -709h-137zM187 790l28 126h120l-27 -126h-121z" />
    <glyph glyph-name="dotlessi" unicode="&#x131;" horiz-adv-x="253" 
d="M107 524h134l-111 -524h-134z" />
    <glyph glyph-name="IJ" unicode="&#x132;" horiz-adv-x="764" 
d="M161 709h137l-151 -709h-137zM379 -11q-43 0 -77 11t-60 33l54 112q10 -9 39.5 -21.5t69.5 -12.5q38 0 64.5 15t44.5 44.5t31 74t26 104.5l77 360h138l-77 -360q-17 -81 -40 -147t-58 -114t-91.5 -73.5t-140.5 -25.5z" />
    <glyph glyph-name="ij" unicode="&#x133;" horiz-adv-x="511" 
d="M107 524h134l-111 -524h-134zM151 730h134l-28 -133h-134zM170 -196q-36 0 -66.5 11.5t-51.5 35.5l76 91q9 -12 22.5 -17t27.5 -5q16 0 31 8.5t26 23.5t15 34l115 538h134l-112 -528q-12 -56 -44.5 -100t-77.5 -68t-95 -24zM409 730h134l-29 -133h-134z" />
    <glyph glyph-name="Jcircumflex" unicode="&#x134;" horiz-adv-x="479" 
d="M94 -11q-43 0 -77 11t-60 33l54 112q10 -9 39.5 -21.5t69.5 -12.5q38 0 64.5 15t44.5 44.5t31 74t26 104.5l77 360h138l-77 -360q-17 -81 -40 -147t-58 -114t-91.5 -73.5t-140.5 -25.5zM304 813l124 101h96l81 -101l-77 -32l-67 63l-94 -63z" />
    <glyph glyph-name="jcircumflex" unicode="&#x135;" horiz-adv-x="253" 
d="M-88 -196q-36 0 -66.5 11.5t-51.5 35.5l76 91q8 -12 21.5 -17t28.5 -5q16 0 31 8.5t26 23.5t15 34l115 538h134l-112 -528q-12 -56 -45 -100t-77.5 -68t-94.5 -24zM54 629l124 101h96l81 -101l-77 -32l-67 63l-94 -63z" />
    <glyph glyph-name="uni0136" unicode="&#x136;" horiz-adv-x="643" 
d="M161 709h137l-72 -337l345 338h154l-325 -315l190 -395h-156l-139 307l-103 -95l-45 -212h-137zM202 -213l43 72h-40l20 94h113l-20 -94l-55 -72h-61z" />
    <glyph glyph-name="uni0137" unicode="&#x137;" horiz-adv-x="560" 
d="M238 237q85 17 131 55t46 81q0 24 -13 34.5t-33 10.5q-36 0 -76 -28t-72.5 -74.5t-49.5 -102.5l25 152q29 49 64.5 86.5t77 58.5t88.5 21q55 0 82 -30.5t27 -83.5q0 -65 -38.5 -120t-112.5 -92l98 -205h-142zM151 730h133l-155 -730h-133zM136 -213l43 72h-40l20 94h113
l-20 -94l-55 -72h-61z" />
    <glyph glyph-name="kgreenlandic" unicode="&#x138;" horiz-adv-x="539" 
d="M107 524h134l-51 -237l242 236h143l-231 -222l134 -301h-143l-93 227l-79 -71l-33 -156h-134z" />
    <glyph glyph-name="Lacute" unicode="&#x139;" horiz-adv-x="561" 
d="M161 710h137l-125 -589h339l-25 -121h-477zM270 782l-87 17l76 119h124z" />
    <glyph glyph-name="lacute" unicode="&#x13a;" horiz-adv-x="309" 
d="M121 -8q-50 0 -77.5 23.5t-27.5 67.5q0 9 1.5 18.5t2.5 19.5l130 609h133l-119 -562q-1 -5 -1.5 -10t-0.5 -10q0 -41 41 -41q11 0 25.5 4t27.5 10l-4 -102q-28 -13 -65 -20t-66 -7zM271 802l-87 17l76 119h124z" />
    <glyph glyph-name="uni013B" unicode="&#x13b;" horiz-adv-x="561" 
d="M161 710h137l-125 -589h339l-25 -121h-477zM162 -213l43 72h-40l20 94h113l-20 -94l-55 -72h-61z" />
    <glyph glyph-name="uni013C" unicode="&#x13c;" horiz-adv-x="309" 
d="M121 -8q-50 0 -77.5 23.5t-27.5 67.5q0 9 1.5 18.5t2.5 19.5l130 609h133l-119 -562q-1 -5 -1.5 -10t-0.5 -10q0 -41 41 -41q11 0 25.5 4t27.5 10l-4 -102q-28 -13 -65 -20t-66 -7zM38 -213l43 72h-40l20 94h113l-20 -94l-55 -72h-61z" />
    <glyph glyph-name="Lcaron" unicode="&#x13d;" horiz-adv-x="561" 
d="M161 710h137l-125 -589h339l-25 -121h-477zM424 611l76 119h124l-120 -145z" />
    <glyph glyph-name="lcaron" unicode="&#x13e;" horiz-adv-x="309" 
d="M121 -8q-50 0 -77.5 23.5t-27.5 67.5q0 9 1.5 18.5t2.5 19.5l130 609h133l-119 -562q-1 -5 -1.5 -10t-0.5 -10q0 -41 41 -41q11 0 25.5 4t27.5 10l-4 -102q-28 -13 -65 -20t-66 -7zM280 611l76 119h124l-120 -145z" />
    <glyph glyph-name="Ldot" unicode="&#x13f;" horiz-adv-x="562" 
d="M161 710h137l-125 -589h339l-25 -121h-477zM336 340l32 151h110l-32 -151h-110z" />
    <glyph glyph-name="ldot" unicode="&#x140;" horiz-adv-x="393" 
d="M121 -8q-50 0 -77.5 23.5t-27.5 67.5q0 9 1.5 18.5t2.5 19.5l130 609h133l-119 -562q-1 -5 -1.5 -10t-0.5 -10q0 -41 41 -41q11 0 25.5 4t27.5 10l-4 -102q-28 -13 -65 -20t-66 -7zM262 266l32 151h110l-32 -151h-110z" />
    <glyph glyph-name="Lslash" unicode="&#x141;" horiz-adv-x="569" 
d="M3 315l364 210l17 -73l-363 -210zM161 710h137l-125 -589h339l-25 -121h-477z" />
    <glyph glyph-name="lslash" unicode="&#x142;" horiz-adv-x="343" 
d="M10 341l334 183l18 -72l-334 -183zM153 -8q-50 0 -77.5 23.5t-27.5 67.5q0 9 1.5 18.5t3.5 19.5l129 609h134l-117 -551q-2 -9 -3.5 -16.5t-1.5 -14.5q0 -41 41 -41q11 0 26 4t28 10l-5 -102q-29 -13 -65.5 -20t-65.5 -7z" />
    <glyph glyph-name="Nacute" unicode="&#x143;" horiz-adv-x="733" 
d="M161 710h107l242 -466l99 465h137l-151 -709h-111l-241 455l-96 -455h-137zM506 780l-87 17l76 119h124z" />
    <glyph glyph-name="nacute" unicode="&#x144;" horiz-adv-x="582" 
d="M107 524h121l-21 -97q26 34 60.5 57.5t75 36t83.5 12.5q46 0 71 -16t35.5 -43.5t10.5 -61.5q0 -21 -3 -42t-7 -43l-69 -327h-134l62 294q4 15 5.5 28t1.5 25q0 35 -15.5 51.5t-41.5 16.5q-24 0 -52 -14t-53 -38.5t-42 -56.5l-65 -306h-134zM394 594l-87 17l76 119h124z
" />
    <glyph glyph-name="uni0145" unicode="&#x145;" horiz-adv-x="733" 
d="M161 710h107l242 -466l99 465h137l-151 -709h-111l-241 455l-96 -455h-137zM224 -213l43 72h-40l20 94h113l-20 -94l-55 -72h-61z" />
    <glyph glyph-name="uni0146" unicode="&#x146;" horiz-adv-x="582" 
d="M107 524h121l-21 -97q26 34 60.5 57.5t75 36t83.5 12.5q46 0 71 -16t35.5 -43.5t10.5 -61.5q0 -21 -3 -42t-7 -43l-69 -327h-134l62 294q4 15 5.5 28t1.5 25q0 35 -15.5 51.5t-41.5 16.5q-24 0 -52 -14t-53 -38.5t-42 -56.5l-65 -306h-134zM145 -213l43 72h-40l20 94h113
l-20 -94l-55 -72h-61z" />
    <glyph glyph-name="Ncaron" unicode="&#x147;" horiz-adv-x="733" 
d="M161 710h107l242 -466l99 465h137l-151 -709h-111l-241 455l-96 -455h-137zM339 882l76 32l67 -63l94 63l63 -32l-124 -101h-96z" />
    <glyph glyph-name="ncaron" unicode="&#x148;" horiz-adv-x="582" 
d="M107 524h121l-21 -97q26 34 60.5 57.5t75 36t83.5 12.5q46 0 71 -16t35.5 -43.5t10.5 -61.5q0 -21 -3 -42t-7 -43l-69 -327h-134l62 294q4 15 5.5 28t1.5 25q0 35 -15.5 51.5t-41.5 16.5q-24 0 -52 -14t-53 -38.5t-42 -56.5l-65 -306h-134zM258 699l76 32l67 -63l94 63
l63 -32l-124 -101h-96z" />
    <glyph glyph-name="napostrophe" unicode="&#x149;" horiz-adv-x="582" 
d="M-50 611l47 73l3 46h150l-120 -145zM107 524h121l-21 -97q26 34 60.5 57.5t75 36t83.5 12.5q46 0 71 -16t35.5 -43.5t10.5 -61.5q0 -21 -3 -42t-7 -43l-69 -327h-134l62 294q4 15 5.5 28t1.5 25q0 35 -15.5 51.5t-41.5 16.5q-24 0 -52 -14t-53 -38.5t-42 -56.5l-65 -306
h-134z" />
    <glyph glyph-name="Eng" unicode="&#x14a;" horiz-adv-x="720" 
d="M364 -196q-36 0 -66 11.5t-52 35.5l77 91q8 -12 21.5 -17t27.5 -5q17 0 31.5 8.5t26 23.5t15.5 34l9 42l-211 423l-96 -451h-137l151 710h105l232 -460l97 459h138l-153 -718q-12 -56 -45 -98t-78 -65.5t-93 -23.5z" />
    <glyph glyph-name="eng" unicode="&#x14b;" horiz-adv-x="582" 
d="M245 -196q-36 0 -66 11.5t-51 35.5l76 91q8 -12 21.5 -17t28.5 -5q16 0 31 8.5t26.5 23.5t15.5 34l65 308q4 15 5.5 28t1.5 25q0 35 -15.5 51.5t-41.5 16.5q-24 0 -52 -14t-53 -38.5t-42 -56.5l-65 -306h-134l111 524h121l-21 -97q26 34 60.5 57.5t75 36t83.5 12.5
q46 0 71 -16t35.5 -43t10.5 -61q0 -21 -3 -42.5t-7 -43.5l-71 -331q-12 -56 -45 -100t-78 -68t-94 -24z" />
    <glyph glyph-name="Omacron" unicode="&#x14c;" horiz-adv-x="729" 
d="M299 -5q-63 0 -112 24t-82.5 65.5t-50.5 94.5t-17 111q0 64 22 126.5t61.5 116t92.5 94.5t114.5 64.5t127.5 23.5q62 0 110.5 -24.5t82 -66.5t50 -95t16.5 -111q0 -64 -22 -125.5t-61 -115.5t-91.5 -95t-114 -64t-126.5 -23zM326 117q55 0 100.5 26.5t79 69.5t51 94.5
t17.5 100.5q0 50 -16.5 91.5t-49 67t-82.5 25.5q-55 0 -100.5 -26t-78.5 -69t-51.5 -94.5t-18.5 -101.5q0 -49 16.5 -91t49.5 -67.5t83 -25.5zM333 816l18 83h287l-18 -83h-287z" />
    <glyph glyph-name="omacron" unicode="&#x14d;" horiz-adv-x="586" 
d="M234 -10q-76 0 -124.5 30t-71.5 80.5t-23 111.5q0 64 23.5 122t66.5 103t101.5 70.5t128.5 25.5q76 0 124.5 -30t71.5 -80t23 -112q0 -64 -23.5 -122t-66.5 -103t-101.5 -70.5t-128.5 -25.5zM254 104q31 0 60 14t51.5 40t36 61t13.5 76q0 37 -11.5 65t-34 43.5
t-54.5 15.5q-31 0 -59.5 -14t-51.5 -40t-36.5 -61.5t-13.5 -76.5q0 -36 11.5 -64t34 -43.5t54.5 -15.5zM220 630l18 83h287l-18 -83h-287z" />
    <glyph glyph-name="Obreve" unicode="&#x14e;" horiz-adv-x="729" 
d="M299 -5q-63 0 -112 24t-82.5 65.5t-50.5 94.5t-17 111q0 64 22 126.5t61.5 116t92.5 94.5t114.5 64.5t127.5 23.5q62 0 110.5 -24.5t82 -66.5t50 -95t16.5 -111q0 -64 -22 -125.5t-61 -115.5t-91.5 -95t-114 -64t-126.5 -23zM326 117q55 0 100.5 26.5t79 69.5t51 94.5
t17.5 100.5q0 50 -16.5 91.5t-49 67t-82.5 25.5q-55 0 -100.5 -26t-78.5 -69t-51.5 -94.5t-18.5 -101.5q0 -49 16.5 -91t49.5 -67.5t83 -25.5zM481 840q21 0 41.5 21t30.5 53h72q-8 -38 -31 -69t-55.5 -48t-69.5 -17q-48 0 -76 28t-28 73q0 9 1 17t3 16h72l-2 -10t-1 -10
q0 -23 12 -38.5t31 -15.5z" />
    <glyph glyph-name="obreve" unicode="&#x14f;" horiz-adv-x="586" 
d="M234 -10q-76 0 -124.5 30t-71.5 80.5t-23 111.5q0 64 23.5 122t66.5 103t101.5 70.5t128.5 25.5q76 0 124.5 -30t71.5 -80t23 -112q0 -64 -23.5 -122t-66.5 -103t-101.5 -70.5t-128.5 -25.5zM254 104q31 0 60 14t51.5 40t36 61t13.5 76q0 37 -11.5 65t-34 43.5
t-54.5 15.5q-31 0 -59.5 -14t-51.5 -40t-36.5 -61.5t-13.5 -76.5q0 -36 11.5 -64t34 -43.5t54.5 -15.5zM368 654q21 0 41.5 21t30.5 53h72q-8 -38 -31 -69t-55.5 -48t-69.5 -17q-48 0 -76 28t-28 73q0 9 1 17t3 16h72l-2 -10t-1 -10q0 -23 12 -38.5t31 -15.5z" />
    <glyph glyph-name="Ohungarumlaut" unicode="&#x150;" horiz-adv-x="729" 
d="M299 -5q-63 0 -112 24t-82.5 65.5t-50.5 94.5t-17 111q0 64 22 126.5t61.5 116t92.5 94.5t114.5 64.5t127.5 23.5q62 0 110.5 -24.5t82 -66.5t50 -95t16.5 -111q0 -64 -22 -125.5t-61 -115.5t-91.5 -95t-114 -64t-126.5 -23zM326 117q55 0 100.5 26.5t79 69.5t51 94.5
t17.5 100.5q0 50 -16.5 91.5t-49 67t-82.5 25.5q-55 0 -100.5 -26t-78.5 -69t-51.5 -94.5t-18.5 -101.5q0 -49 16.5 -91t49.5 -67.5t83 -25.5zM409 779l-67 16l70 119h103zM565 779l-67 16l70 119h103z" />
    <glyph glyph-name="ohungarumlaut" unicode="&#x151;" horiz-adv-x="586" 
d="M234 -10q-76 0 -124.5 30t-71.5 80.5t-23 111.5q0 64 23.5 122t66.5 103t101.5 70.5t128.5 25.5q76 0 124.5 -30t71.5 -80t23 -112q0 -64 -23.5 -122t-66.5 -103t-101.5 -70.5t-128.5 -25.5zM254 104q31 0 60 14t51.5 40t36 61t13.5 76q0 37 -11.5 65t-34 43.5
t-54.5 15.5q-31 0 -59.5 -14t-51.5 -40t-36.5 -61.5t-13.5 -76.5q0 -36 11.5 -64t34 -43.5t54.5 -15.5zM300 593l-67 16l70 119h103zM456 593l-67 16l70 119h103z" />
    <glyph glyph-name="OE" unicode="&#x152;" horiz-adv-x="1032" 
d="M289 -5q-60 0 -107.5 24t-79.5 65t-48.5 94t-16.5 110q0 65 22 127.5t60.5 116.5t90 95t111.5 64.5t124 23.5q39 0 70.5 -14.5t54.5 -39t37 -55.5l22 104h448l-26 -121h-311l-35 -167h259l-25 -121h-260l-38 -180h319l-26 -121h-456l22 105q-27 -32 -61.5 -56.5
t-72.5 -39t-77 -14.5zM316 117q42 0 79 17.5t66.5 47.5t50.5 68t32 79.5t11 82.5q0 48 -15.5 89t-46 66.5t-76.5 25.5q-42 0 -78.5 -17.5t-66 -47.5t-51 -68t-33 -79.5t-11.5 -82.5q0 -48 15.5 -89t46.5 -66.5t77 -25.5z" />
    <glyph glyph-name="oe" unicode="&#x153;" horiz-adv-x="965" 
d="M226 -10q-65 0 -112.5 28.5t-73 77.5t-25.5 112q0 67 26.5 126.5t71.5 104t104 69.5t124 25q42 0 75 -14t56.5 -41.5t37.5 -66.5q50 61 105 91.5t118 30.5q65 0 111.5 -27.5t71.5 -77t25 -114.5q0 -37 -6.5 -59.5t-11.5 -35.5h-379q-1 -5 -1.5 -11t-0.5 -12q0 -32 13 -57
t36 -39.5t54 -14.5q39 0 76.5 21t55.5 53l105 -32q-29 -41 -70.5 -72.5t-90.5 -48t-100 -16.5q-39 0 -71 13.5t-57.5 40t-46.5 64.5q-37 -39 -73.5 -65.5t-72.5 -39.5t-74 -13zM251 104q33 0 62 15t52 42t36.5 62t13.5 75q0 36 -12 63t-33.5 42.5t-51.5 15.5q-31 0 -61 -15
t-53 -42.5t-36.5 -63t-13.5 -75.5q0 -34 12 -61t34 -42.5t51 -15.5zM806 302q1 6 1.5 12t0.5 11q0 51 -27 81t-73 30q-33 0 -63.5 -17t-53 -47t-34.5 -70h249z" />
    <glyph glyph-name="Racute" unicode="&#x154;" horiz-adv-x="642" 
d="M10 0l151 710h300q54 0 92 -28t58.5 -73t20.5 -95q0 -39 -12.5 -76.5t-35.5 -70.5t-53.5 -59t-66.5 -41l96 -267h-156l-84 238h-123l-50 -238h-137zM382 359q21 0 40 11.5t34.5 31t24.5 45t9 53.5q0 26 -8.5 46t-23 31.5t-32.5 11.5h-154l-49 -230h159zM449 782l-87 17
l76 119h124z" />
    <glyph glyph-name="racute" unicode="&#x155;" horiz-adv-x="378" 
d="M107 524h123l-24 -112q38 54 85.5 85.5t93.5 31.5q10 0 15.5 -0.5t8.5 -1.5l-25 -119q-57 0 -107.5 -23.5t-79.5 -67.5l-67 -317h-134zM297 594l-87 17l76 119h124z" />
    <glyph glyph-name="uni0156" unicode="&#x156;" horiz-adv-x="642" 
d="M10 0l151 710h300q54 0 92 -28t58.5 -73t20.5 -95q0 -39 -12.5 -76.5t-35.5 -70.5t-53.5 -59t-66.5 -41l96 -267h-156l-84 238h-123l-50 -238h-137zM382 359q21 0 40 11.5t34.5 31t24.5 45t9 53.5q0 26 -8.5 46t-23 31.5t-32.5 11.5h-154l-49 -230h159zM167 -213l43 72
h-40l20 94h113l-20 -94l-55 -72h-61z" />
    <glyph glyph-name="uni0157" unicode="&#x157;" horiz-adv-x="378" 
d="M107 524h123l-24 -112q38 54 85.5 85.5t93.5 31.5q10 0 15.5 -0.5t8.5 -1.5l-25 -119q-57 0 -107.5 -23.5t-79.5 -67.5l-67 -317h-134zM-26 -213l43 72h-40l20 94h113l-20 -94l-55 -72h-61z" />
    <glyph glyph-name="Rcaron" unicode="&#x158;" horiz-adv-x="642" 
d="M10 0l151 710h300q54 0 92 -28t58.5 -73t20.5 -95q0 -39 -12.5 -76.5t-35.5 -70.5t-53.5 -59t-66.5 -41l96 -267h-156l-84 238h-123l-50 -238h-137zM382 359q21 0 40 11.5t34.5 31t24.5 45t9 53.5q0 26 -8.5 46t-23 31.5t-32.5 11.5h-154l-49 -230h159zM280 884l76 32
l67 -63l94 63l63 -32l-124 -101h-96z" />
    <glyph glyph-name="rcaron" unicode="&#x159;" horiz-adv-x="378" 
d="M107 524h123l-24 -112q38 54 85.5 85.5t93.5 31.5q10 0 15.5 -0.5t8.5 -1.5l-25 -119q-57 0 -107.5 -23.5t-79.5 -67.5l-67 -317h-134zM128 696l76 32l67 -63l94 63l63 -32l-124 -101h-96z" />
    <glyph glyph-name="Sacute" unicode="&#x15a;" horiz-adv-x="592" 
d="M243 -8q-75 0 -145 24.5t-119 67.5l86 119q6 -9 24 -23.5t46 -29t63 -24.5t74 -10q40 0 66.5 10.5t39.5 30t13 45.5q0 27 -19.5 43t-53.5 28.5t-78 26.5q-50 16 -84 36t-51.5 48.5t-17.5 68.5q0 62 24.5 111t67 82.5t96.5 51t113 17.5q47 0 87.5 -11t74 -29t58.5 -39
l-85 -112q-3 7 -18 19t-38 23t-51 19.5t-58 8.5q-39 0 -66.5 -12t-40.5 -33t-13 -50q0 -22 15.5 -37t44.5 -25.5t71 -23.5q53 -15 92.5 -36t61.5 -52.5t22 -80.5q0 -67 -25.5 -115t-68.5 -78t-96.5 -44.5t-111.5 -14.5zM451 793l-87 17l76 119h124z" />
    <glyph glyph-name="sacute" unicode="&#x15b;" horiz-adv-x="480" 
d="M186 -10q-64 0 -120.5 21t-90.5 60l67 84q38 -33 78 -50.5t81 -17.5q28 0 48 8.5t31 23t11 33.5q0 25 -22 37t-69 26q-52 17 -85.5 32.5t-49.5 37t-16 54.5q0 56 31.5 100t85 69.5t119.5 25.5q57 0 102 -17.5t80 -54.5l-71 -81q-32 30 -61.5 43.5t-64.5 13.5
q-26 0 -46.5 -7.5t-32.5 -22.5t-12 -36q0 -23 18.5 -33.5t64.5 -24.5q56 -16 92 -33.5t54 -41.5t18 -61q0 -55 -30 -97t-84 -66.5t-126 -24.5zM346 594l-87 17l76 119h124z" />
    <glyph glyph-name="Scircumflex" unicode="&#x15c;" horiz-adv-x="592" 
d="M243 -8q-75 0 -145 24.5t-119 67.5l86 119q6 -9 24 -23.5t46 -29t63 -24.5t74 -10q40 0 66.5 10.5t39.5 30t13 45.5q0 27 -19.5 43t-53.5 28.5t-78 26.5q-50 16 -84 36t-51.5 48.5t-17.5 68.5q0 62 24.5 111t67 82.5t96.5 51t113 17.5q47 0 87.5 -11t74 -29t58.5 -39
l-85 -112q-3 7 -18 19t-38 23t-51 19.5t-58 8.5q-39 0 -66.5 -12t-40.5 -33t-13 -50q0 -22 15.5 -37t44.5 -25.5t71 -23.5q53 -15 92.5 -36t61.5 -52.5t22 -80.5q0 -67 -25.5 -115t-68.5 -78t-96.5 -44.5t-111.5 -14.5zM268 826l124 101h96l81 -101l-77 -32l-67 63l-94 -63z
" />
    <glyph glyph-name="scircumflex" unicode="&#x15d;" horiz-adv-x="480" 
d="M186 -10q-64 0 -120.5 21t-90.5 60l67 84q38 -33 78 -50.5t81 -17.5q28 0 48 8.5t31 23t11 33.5q0 25 -22 37t-69 26q-52 17 -85.5 32.5t-49.5 37t-16 54.5q0 56 31.5 100t85 69.5t119.5 25.5q57 0 102 -17.5t80 -54.5l-71 -81q-32 30 -61.5 43.5t-64.5 13.5
q-26 0 -46.5 -7.5t-32.5 -22.5t-12 -36q0 -23 18.5 -33.5t64.5 -24.5q56 -16 92 -33.5t54 -41.5t18 -61q0 -55 -30 -97t-84 -66.5t-126 -24.5zM155 627l124 101h96l81 -101l-77 -32l-67 63l-94 -63z" />
    <glyph glyph-name="Scedilla" unicode="&#x15e;" horiz-adv-x="592" 
d="M243 -8q-75 0 -145 24.5t-119 67.5l86 119q6 -9 24 -23.5t46 -29t63 -24.5t74 -10q40 0 66.5 10.5t39.5 30t13 45.5q0 27 -19.5 43t-53.5 28.5t-78 26.5q-50 16 -84 36t-51.5 48.5t-17.5 68.5q0 62 24.5 111t67 82.5t96.5 51t113 17.5q47 0 87.5 -11t74 -29t58.5 -39
l-85 -112q-3 7 -18 19t-38 23t-51 19.5t-58 8.5q-39 0 -66.5 -12t-40.5 -33t-13 -50q0 -22 15.5 -37t44.5 -25.5t71 -23.5q53 -15 92.5 -36t61.5 -52.5t22 -80.5q0 -67 -25.5 -115t-68.5 -78t-96.5 -44.5t-111.5 -14.5zM182 -201q-23 0 -48.5 7.5t-49.5 22.5l49 71
q10 -10 22 -15.5t25 -5.5q23 0 39 15t16 41q0 18 -7 34t-21 31l49 29q22 -22 37.5 -48.5t15.5 -60.5q0 -33 -14.5 -60.5t-43 -44t-69.5 -16.5z" />
    <glyph glyph-name="scedilla" unicode="&#x15f;" horiz-adv-x="480" 
d="M186 -10q-64 0 -120.5 21t-90.5 60l67 84q38 -33 78 -50.5t81 -17.5q28 0 48 8.5t31 23t11 33.5q0 25 -22 37t-69 26q-52 17 -85.5 32.5t-49.5 37t-16 54.5q0 56 31.5 100t85 69.5t119.5 25.5q57 0 102 -17.5t80 -54.5l-71 -81q-32 30 -61.5 43.5t-64.5 13.5
q-26 0 -46.5 -7.5t-32.5 -22.5t-12 -36q0 -23 18.5 -33.5t64.5 -24.5q56 -16 92 -33.5t54 -41.5t18 -61q0 -55 -30 -97t-84 -66.5t-126 -24.5zM124 -201q-23 0 -48.5 7.5t-49.5 22.5l49 71q10 -10 22 -15.5t25 -5.5q23 0 39 15t16 41q0 18 -7 34t-21 31l49 29
q22 -22 37.5 -48.5t15.5 -60.5q0 -33 -14.5 -60.5t-43 -44t-69.5 -16.5z" />
    <glyph glyph-name="Scaron" unicode="&#x160;" horiz-adv-x="592" 
d="M243 -8q-75 0 -145 24.5t-119 67.5l86 119q6 -9 24 -23.5t46 -29t63 -24.5t74 -10q40 0 66.5 10.5t39.5 30t13 45.5q0 27 -19.5 43t-53.5 28.5t-78 26.5q-50 16 -84 36t-51.5 48.5t-17.5 68.5q0 62 24.5 111t67 82.5t96.5 51t113 17.5q47 0 87.5 -11t74 -29t58.5 -39
l-85 -112q-3 7 -18 19t-38 23t-51 19.5t-58 8.5q-39 0 -66.5 -12t-40.5 -33t-13 -50q0 -22 15.5 -37t44.5 -25.5t71 -23.5q53 -15 92.5 -36t61.5 -52.5t22 -80.5q0 -67 -25.5 -115t-68.5 -78t-96.5 -44.5t-111.5 -14.5zM277 895l76 32l67 -63l94 63l63 -32l-124 -101h-96z
" />
    <glyph glyph-name="scaron" unicode="&#x161;" horiz-adv-x="480" 
d="M186 -10q-64 0 -120.5 21t-90.5 60l67 84q38 -33 78 -50.5t81 -17.5q28 0 48 8.5t31 23t11 33.5q0 25 -22 37t-69 26q-52 17 -85.5 32.5t-49.5 37t-16 54.5q0 56 31.5 100t85 69.5t119.5 25.5q57 0 102 -17.5t80 -54.5l-71 -81q-32 30 -61.5 43.5t-64.5 13.5
q-26 0 -46.5 -7.5t-32.5 -22.5t-12 -36q0 -23 18.5 -33.5t64.5 -24.5q56 -16 92 -33.5t54 -41.5t18 -61q0 -55 -30 -97t-84 -66.5t-126 -24.5zM174 696l76 32l67 -63l94 63l63 -32l-124 -101h-96z" />
    <glyph glyph-name="uni0162" unicode="&#x162;" horiz-adv-x="592" 
d="M289 589h-213l25 121h563l-26 -121h-212l-125 -589h-138zM173 -201q-23 0 -48.5 7.5t-49.5 22.5l49 71q10 -10 22 -15.5t25 -5.5q23 0 39 15t16 41q0 18 -7 34t-21 31l49 29q22 -22 37.5 -48.5t15.5 -60.5q0 -33 -14.5 -60.5t-43 -44t-69.5 -16.5z" />
    <glyph glyph-name="uni0163" unicode="&#x163;" horiz-adv-x="373" 
d="M47 83q0 9 1 18t3 19l64 301h-65l22 103h64l36 170h134l-36 -170h105l-22 -103h-104l-55 -256q-1 -4 -1.5 -8t-0.5 -8q0 -19 11 -27t27 -8q13 0 26.5 3t25.5 8t21 8l4 -106q-20 -9 -45 -17.5t-52 -13.5t-54 -5q-47 0 -78 21.5t-31 70.5zM85 -201q-23 0 -48.5 7.5
t-49.5 22.5l49 71q10 -10 22 -15.5t25 -5.5q23 0 39 15t16 41q0 18 -7 34t-21 31l49 29q22 -22 37.5 -48.5t15.5 -60.5q0 -33 -14.5 -60.5t-43 -44t-69.5 -16.5z" />
    <glyph glyph-name="Tcaron" unicode="&#x164;" horiz-adv-x="592" 
d="M289 589h-213l25 121h563l-26 -121h-212l-125 -589h-138zM264 882l76 32l67 -63l94 63l63 -32l-124 -101h-96z" />
    <glyph glyph-name="tcaron" unicode="&#x165;" horiz-adv-x="373" 
d="M47 83q0 9 1 18t3 19l64 301h-65l22 103h64l36 170h134l-36 -170h105l-22 -103h-104l-55 -256q-1 -4 -1.5 -8t-0.5 -8q0 -19 11 -27t27 -8q13 0 26.5 3t25.5 8t21 8l4 -106q-20 -9 -45 -17.5t-52 -13.5t-54 -5q-47 0 -78 21.5t-31 70.5zM322 611l76 119h124l-120 -145z
" />
    <glyph glyph-name="Tbar" unicode="&#x166;" horiz-adv-x="618" 
d="M79 379h492l-14 -66h-492zM301 589h-213l25 121h563l-25 -121h-213l-125 -589h-137z" />
    <glyph glyph-name="tbar" unicode="&#x167;" horiz-adv-x="374" 
d="M33 343h303l-17 -80h-303zM47 83q0 9 1 18t3 19l64 301h-65l22 103h64l36 170h134l-36 -170h105l-22 -103h-104l-55 -256q-1 -4 -1.5 -8t-0.5 -8q0 -19 11 -27t27 -8q13 0 26.5 3t25.5 8t21 8l4 -106q-20 -9 -45 -17.5t-52 -13.5t-54 -5q-47 0 -78 21.5t-31 70.5z" />
    <glyph glyph-name="Utilde" unicode="&#x168;" horiz-adv-x="720" 
d="M295 -5q-85 0 -136.5 32t-74.5 86t-23 122q0 27 3 55.5t10 57.5l77 362h137l-77 -362q-5 -23 -7.5 -45t-2.5 -44q0 -40 11 -72t37.5 -51t70.5 -19q46 0 80.5 19.5t60 52.5t42 74.5t26.5 84.5l77 362h137l-77 -362q-15 -73 -46 -137t-77 -112.5t-108 -76t-140 -27.5z
M523 786q-29 0 -47 11.5t-33 22.5t-36 11t-33 -11.5t-17 -23.5t-5 -13h-74q2 9 12 30t28.5 43.5t43.5 38.5t57 16q22 0 36.5 -7t26 -16.5t24 -16.5t28.5 -7q23 0 36.5 12t19.5 24t6 14h73q-2 -7 -12 -27t-29 -43.5t-45.5 -40.5t-59.5 -17z" />
    <glyph glyph-name="utilde" unicode="&#x169;" horiz-adv-x="595" 
d="M145 -10q-123 0 -123 128q0 18 2.5 37t7.5 41l70 328h133l-63 -299q-7 -29 -7 -50q0 -71 60 -71q24 0 48.5 10.5t49.5 31.5t46 53l69 325h134l-79 -370q-1 -5 -1.5 -9.5t-0.5 -8.5q0 -21 24 -22l-24 -114q-18 -3 -31.5 -5t-24.5 -2q-34 0 -54 14t-20 43q0 5 0.5 11
t2 15.5t4.5 21.5q-45 -53 -102.5 -80.5t-120.5 -27.5zM424 602q-29 0 -47 11.5t-33 22.5t-36 11t-33 -11.5t-17 -23.5t-5 -13h-74q2 9 12 30t28.5 43.5t43.5 38.5t57 16q22 0 36.5 -7t26 -16.5t24 -16.5t28.5 -7q23 0 36.5 12t19.5 24t6 14h73q-2 -7 -12 -27t-29 -43.5
t-45.5 -40.5t-59.5 -17z" />
    <glyph glyph-name="Umacron" unicode="&#x16a;" horiz-adv-x="720" 
d="M295 -5q-85 0 -136.5 32t-74.5 86t-23 122q0 27 3 55.5t10 57.5l77 362h137l-77 -362q-5 -23 -7.5 -45t-2.5 -44q0 -40 11 -72t37.5 -51t70.5 -19q46 0 80.5 19.5t60 52.5t42 74.5t26.5 84.5l77 362h137l-77 -362q-15 -73 -46 -137t-77 -112.5t-108 -76t-140 -27.5z
M322 816l18 83h287l-18 -83h-287z" />
    <glyph glyph-name="umacron" unicode="&#x16b;" horiz-adv-x="595" 
d="M145 -10q-123 0 -123 128q0 18 2.5 37t7.5 41l70 328h133l-63 -299q-7 -29 -7 -50q0 -71 60 -71q24 0 48.5 10.5t49.5 31.5t46 53l69 325h134l-79 -370q-1 -5 -1.5 -9.5t-0.5 -8.5q0 -21 24 -22l-24 -114q-18 -3 -31.5 -5t-24.5 -2q-34 0 -54 14t-20 43q0 5 0.5 11
t2 15.5t4.5 21.5q-45 -53 -102.5 -80.5t-120.5 -27.5zM223 632l18 83h287l-18 -83h-287z" />
    <glyph glyph-name="Ubreve" unicode="&#x16c;" horiz-adv-x="720" 
d="M295 -5q-85 0 -136.5 32t-74.5 86t-23 122q0 27 3 55.5t10 57.5l77 362h137l-77 -362q-5 -23 -7.5 -45t-2.5 -44q0 -40 11 -72t37.5 -51t70.5 -19q46 0 80.5 19.5t60 52.5t42 74.5t26.5 84.5l77 362h137l-77 -362q-15 -73 -46 -137t-77 -112.5t-108 -76t-140 -27.5z
M470 840q21 0 41.5 21t30.5 53h72q-8 -38 -31 -69t-55.5 -48t-69.5 -17q-48 0 -76 28t-28 73q0 9 1 17t3 16h72l-2 -10t-1 -10q0 -23 12 -38.5t31 -15.5z" />
    <glyph glyph-name="ubreve" unicode="&#x16d;" horiz-adv-x="595" 
d="M145 -10q-123 0 -123 128q0 18 2.5 37t7.5 41l70 328h133l-63 -299q-7 -29 -7 -50q0 -71 60 -71q24 0 48.5 10.5t49.5 31.5t46 53l69 325h134l-79 -370q-1 -5 -1.5 -9.5t-0.5 -8.5q0 -21 24 -22l-24 -114q-18 -3 -31.5 -5t-24.5 -2q-34 0 -54 14t-20 43q0 5 0.5 11
t2 15.5t4.5 21.5q-45 -53 -102.5 -80.5t-120.5 -27.5zM367 656q21 0 41.5 21t30.5 53h72q-8 -38 -31 -69t-55.5 -48t-69.5 -17q-48 0 -76 28t-28 73q0 9 1 17t3 16h72l-2 -10t-1 -10q0 -23 12 -38.5t31 -15.5z" />
    <glyph glyph-name="Uring" unicode="&#x16e;" horiz-adv-x="720" 
d="M295 -5q-85 0 -136.5 32t-74.5 86t-23 122q0 27 3 55.5t10 57.5l77 362h137l-77 -362q-5 -23 -7.5 -45t-2.5 -44q0 -40 11 -72t37.5 -51t70.5 -19q46 0 80.5 19.5t60 52.5t42 74.5t26.5 84.5l77 362h137l-77 -362q-15 -73 -46 -137t-77 -112.5t-108 -76t-140 -27.5z
M374 822q0 43 32.5 67.5t81.5 24.5q37 0 58.5 -16t21.5 -46q0 -43 -32 -67.5t-81 -24.5q-38 0 -59.5 16.5t-21.5 45.5zM478 873q-18 0 -32 -11.5t-14 -30.5q0 -13 8.5 -21.5t22.5 -8.5q18 0 32.5 12.5t14.5 30.5q0 13 -9 21t-23 8z" />
    <glyph glyph-name="uring" unicode="&#x16f;" horiz-adv-x="595" 
d="M145 -10q-123 0 -123 128q0 18 2.5 37t7.5 41l70 328h133l-63 -299q-7 -29 -7 -50q0 -71 60 -71q24 0 48.5 10.5t49.5 31.5t46 53l69 325h134l-79 -370q-1 -5 -1.5 -9.5t-0.5 -8.5q0 -21 24 -22l-24 -114q-18 -3 -31.5 -5t-24.5 -2q-34 0 -54 14t-20 43q0 5 0.5 11
t2 15.5t4.5 21.5q-45 -53 -102.5 -80.5t-120.5 -27.5zM275 638q0 43 32.5 67.5t81.5 24.5q37 0 58.5 -16t21.5 -46q0 -43 -32 -67.5t-81 -24.5q-38 0 -59.5 16.5t-21.5 45.5zM379 689q-18 0 -32 -11.5t-14 -30.5q0 -13 8.5 -21.5t22.5 -8.5q18 0 32.5 12.5t14.5 30.5
q0 13 -9 21t-23 8z" />
    <glyph glyph-name="Uhungarumlaut" unicode="&#x170;" horiz-adv-x="720" 
d="M295 -5q-85 0 -136.5 32t-74.5 86t-23 122q0 27 3 55.5t10 57.5l77 362h137l-77 -362q-5 -23 -7.5 -45t-2.5 -44q0 -40 11 -72t37.5 -51t70.5 -19q46 0 80.5 19.5t60 52.5t42 74.5t26.5 84.5l77 362h137l-77 -362q-15 -73 -46 -137t-77 -112.5t-108 -76t-140 -27.5z
M398 779l-67 16l70 119h103zM554 779l-67 16l70 119h103z" />
    <glyph glyph-name="uhungarumlaut" unicode="&#x171;" horiz-adv-x="595" 
d="M145 -10q-123 0 -123 128q0 18 2.5 37t7.5 41l70 328h133l-63 -299q-7 -29 -7 -50q0 -71 60 -71q24 0 48.5 10.5t49.5 31.5t46 53l69 325h134l-79 -370q-1 -5 -1.5 -9.5t-0.5 -8.5q0 -21 24 -22l-24 -114q-18 -3 -31.5 -5t-24.5 -2q-34 0 -54 14t-20 43q0 5 0.5 11
t2 15.5t4.5 21.5q-45 -53 -102.5 -80.5t-120.5 -27.5zM304 595l-67 16l70 119h103zM460 595l-67 16l70 119h103z" />
    <glyph glyph-name="Uogonek" unicode="&#x172;" horiz-adv-x="720" 
d="M295 -5q-85 0 -136.5 32t-74.5 86t-23 122q0 27 3 55.5t10 57.5l77 362h137l-77 -362q-5 -23 -7.5 -45t-2.5 -44q0 -40 11 -72t37.5 -51t70.5 -19q46 0 80.5 19.5t60 52.5t42 74.5t26.5 84.5l77 362h137l-77 -362q-15 -73 -46 -137t-77 -112.5t-108 -76t-140 -27.5z
M188 -124q0 36 29.5 73t87.5 72h42l6 -21q-38 -29 -58 -51.5t-20 -42.5q0 -14 11.5 -21.5t33.5 -8.5l-43 -76q-46 6 -67.5 28t-21.5 48z" />
    <glyph glyph-name="uogonek" unicode="&#x173;" horiz-adv-x="595" 
d="M145 -10q-123 0 -123 128q0 18 2.5 37t7.5 41l70 328h133l-63 -299q-7 -29 -7 -50q0 -71 60 -71q24 0 48.5 10.5t49.5 31.5t46 53l69 325h134l-79 -370q-1 -5 -1.5 -9.5t-0.5 -8.5q0 -21 24 -22l-24 -114q-18 -3 -31.5 -5t-24.5 -2q-34 0 -54 14t-20 43q0 5 0.5 11
t2 15.5t4.5 21.5q-45 -53 -102.5 -80.5t-120.5 -27.5zM327 -124q0 36 29.5 73t87.5 72h42l6 -21q-38 -29 -58 -51.5t-20 -42.5q0 -14 11.5 -21.5t33.5 -8.5l-43 -76q-46 6 -67.5 28t-21.5 48z" />
    <glyph glyph-name="Wcircumflex" unicode="&#x174;" horiz-adv-x="1002" 
d="M82 710h149l68 -552l128 227l-44 323h127l24 -235l123 235h128l-183 -323l33 -227l302 552h150l-424 -710h-115l-51 298l-178 -298h-115zM454 813l124 101h96l81 -101l-77 -32l-67 63l-94 -63z" />
    <glyph glyph-name="wcircumflex" unicode="&#x175;" horiz-adv-x="790" 
d="M42 524h131l63 -404q24 36 45.5 71.5t41.5 70.5l-56 262h117l26 -162q20 40 37.5 81t32.5 81h109q-24 -71 -55 -134t-72 -127l26 -120q32 43 58 81t47 74t39 71.5t34 73.5t30 81h123q-44 -130 -124.5 -261.5t-190.5 -262.5h-101l-29 171q-26 -43 -53 -85.5t-56 -85.5
h-122zM310 627l124 101h96l81 -101l-77 -32l-67 63l-94 -63z" />
    <glyph glyph-name="Ycircumflex" unicode="&#x176;" horiz-adv-x="619" 
d="M225 250l-144 460h150l88 -342l236 342h149l-343 -462l-52 -248h-137zM252 813l124 101h96l81 -101l-77 -32l-67 63l-94 -63z" />
    <glyph glyph-name="ycircumflex" unicode="&#x177;" horiz-adv-x="520" 
d="M-44 -126q40 3 65.5 10t44.5 22.5t39 43.5l29 39l-87 535h137l45 -408l34 56q31 51 54.5 95.5t41 86t30.5 83.5t24 87h130q-13 -48 -29 -90.5t-38 -88.5t-55.5 -104t-83.5 -138l-80 -129q-35 -56 -67.5 -94.5t-66 -62.5t-70.5 -34.5t-81 -11.5zM166 627l124 101h96
l81 -101l-77 -32l-67 63l-94 -63z" />
    <glyph glyph-name="Ydieresis" unicode="&#x178;" horiz-adv-x="619" 
d="M225 250l-144 460h150l88 -342l236 342h149l-343 -462l-52 -248h-137zM247 788l26 119h111l-26 -119h-111zM435 788l26 119h110l-25 -119h-111z" />
    <glyph glyph-name="Zacute" unicode="&#x179;" horiz-adv-x="597" 
d="M-13 104l476 485h-361l25 121h521l-22 -104l-463 -485h362l-25 -121h-535zM436 782l-87 17l76 119h124z" />
    <glyph glyph-name="zacute" unicode="&#x17a;" horiz-adv-x="471" 
d="M-21 82l342 348h-256l20 94h400l-18 -82l-341 -348h272l-20 -94h-416zM336 596l-87 17l76 119h124z" />
    <glyph glyph-name="Zdotaccent" unicode="&#x17b;" horiz-adv-x="597" 
d="M-13 104l476 485h-361l25 121h521l-22 -104l-463 -485h362l-25 -121h-535zM345 790l28 126h120l-27 -126h-121z" />
    <glyph glyph-name="zdotaccent" unicode="&#x17c;" horiz-adv-x="471" 
d="M-21 82l342 348h-256l20 94h400l-18 -82l-341 -348h272l-20 -94h-416zM243 604l28 126h120l-27 -126h-121z" />
    <glyph glyph-name="Zcaron" unicode="&#x17d;" horiz-adv-x="597" 
d="M-13 104l476 485h-361l25 121h521l-22 -104l-463 -485h362l-25 -121h-535zM271 884l76 32l67 -63l94 63l63 -32l-124 -101h-96z" />
    <glyph glyph-name="zcaron" unicode="&#x17e;" horiz-adv-x="471" 
d="M-21 82l342 348h-256l20 94h400l-18 -82l-341 -348h272l-20 -94h-416zM169 698l76 32l67 -63l94 63l63 -32l-124 -101h-96z" />
    <glyph glyph-name="uni018F" unicode="&#x18f;" horiz-adv-x="718" 
d="M288 -5q-64 0 -114 24t-84 64.5t-51 92t-17 107.5q0 42 8 72t16 46h508q1 8 1.5 15.5t0.5 15.5q0 50 -18.5 85.5t-50.5 55t-73 19.5q-35 0 -70 -13.5t-63.5 -38t-44.5 -57.5l-130 47q37 56 90 97t116 64.5t131 23.5q63 0 111.5 -24t82 -64.5t50.5 -92.5t17 -109
q0 -64 -21 -126.5t-59 -117t-89.5 -96.5t-114 -66t-132.5 -24zM316 116q36 0 69 13t61.5 36.5t50 56t33.5 71.5h-364q-2 -10 -3 -19t-1 -19q0 -30 11 -55.5t31 -44t48.5 -29t63.5 -10.5z" />
    <glyph glyph-name="florin" unicode="&#x192;" horiz-adv-x="526" 
d="M52 -196q-36 0 -66.5 11.5t-51.5 35.5l76 91q8 -12 22 -17t28 -5q16 0 31 8.5t26 23.5t15 34l80 374h-64l21 103h65l14 65q14 65 45 112.5t74 73.5t94 26q30 0 60.5 -8t57.5 -23l-47 -101q-13 8 -31 13.5t-35 5.5q-31 0 -52 -24t-31 -70l-15 -70h120l-22 -103h-120
l-79 -371q-12 -54 -44.5 -96t-77 -65.5t-93.5 -23.5z" />
    <glyph glyph-name="Ohorn" unicode="&#x1a0;" horiz-adv-x="729" 
d="M299 -5q-63 0 -112 24t-82.5 65.5t-50.5 94.5t-17 111q0 64 22 126.5t61.5 116t92.5 94.5t114.5 64.5t127.5 23.5q62 0 110.5 -24.5t82 -66.5t50 -95t16.5 -111q0 -64 -22 -125.5t-61 -115.5t-91.5 -95t-114 -64t-126.5 -23zM326 117q55 0 100.5 26.5t79 69.5t51 94.5
t17.5 100.5q0 50 -16.5 91.5t-49 67t-82.5 25.5q-55 0 -100.5 -26t-78.5 -69t-51.5 -94.5t-18.5 -101.5q0 -49 16.5 -91t49.5 -67.5t83 -25.5zM478 618l20 92q35 0 57 5.5t36 17.5q14 14 19.5 30.5t10.5 35.5h97q-5 -22 -12 -45t-20 -44.5t-36 -41.5q-18 -15 -45.5 -26.5
t-60 -17.5t-66.5 -6z" />
    <glyph glyph-name="ohorn" unicode="&#x1a1;" horiz-adv-x="586" 
d="M234 -10q-76 0 -124.5 30t-71.5 80.5t-23 111.5q0 64 23.5 122t66.5 103t101.5 70.5t128.5 25.5q76 0 124.5 -30t71.5 -80t23 -112q0 -64 -23.5 -122t-66.5 -103t-101.5 -70.5t-128.5 -25.5zM254 104q31 0 60 14t51.5 40t36 61t13.5 76q0 37 -11.5 65t-34 43.5
t-54.5 15.5q-31 0 -59.5 -14t-51.5 -40t-36.5 -61.5t-13.5 -76.5q0 -36 11.5 -64t34 -43.5t54.5 -15.5zM380 431l20 92q35 0 57 5.5t36 17.5q14 14 19.5 30.5t10.5 35.5h97q-5 -22 -12 -45t-20 -44.5t-36 -41.5q-18 -15 -45.5 -26.5t-60 -17.5t-66.5 -6z" />
    <glyph glyph-name="Uhorn" unicode="&#x1af;" horiz-adv-x="720" 
d="M295 -5q-85 0 -136.5 32t-74.5 86t-23 122q0 27 3 55.5t10 57.5l77 362h137l-77 -362q-5 -23 -7.5 -45t-2.5 -44q0 -40 11 -72t37.5 -51t70.5 -19q46 0 80.5 19.5t60 52.5t42 74.5t26.5 84.5l77 362h137l-77 -362q-15 -73 -46 -137t-77 -112.5t-108 -76t-140 -27.5z
M645 617l20 92q35 0 57 5.5t36 17.5q14 14 19.5 30.5t10.5 35.5h97q-5 -22 -12 -45t-20 -44.5t-36 -41.5q-18 -15 -45.5 -26.5t-60 -17.5t-66.5 -6z" />
    <glyph glyph-name="uhorn" unicode="&#x1b0;" horiz-adv-x="595" 
d="M145 -10q-123 0 -123 128q0 18 2.5 37t7.5 41l70 328h133l-63 -299q-7 -29 -7 -50q0 -71 60 -71q24 0 48.5 10.5t49.5 31.5t46 53l69 325h134l-79 -370q-1 -5 -1.5 -9.5t-0.5 -8.5q0 -21 24 -22l-24 -114q-18 -3 -31.5 -5t-24.5 -2q-34 0 -54 14t-20 43q0 5 0.5 11
t2 15.5t4.5 21.5q-45 -53 -102.5 -80.5t-120.5 -27.5zM487 428l20 92q35 0 57 5.5t36 17.5q14 14 19.5 30.5t10.5 35.5h97q-5 -22 -12 -45t-20 -44.5t-36 -41.5q-18 -15 -45.5 -26.5t-60 -17.5t-66.5 -6z" />
    <glyph glyph-name="uni01C4" unicode="&#x1c4;" horiz-adv-x="1289" 
d="M679 104l476 485h-361l26 121h520l-22 -104l-463 -485h363l-26 -121h-535zM161 710h247q92 0 151 -36.5t88 -98.5t29 -140q0 -94 -31.5 -173.5t-88 -138t-133 -91t-166.5 -32.5h-247zM282 121q58 0 104.5 23.5t79.5 64.5t50.5 94t17.5 112q0 52 -17 91t-50.5 61t-84.5 22
h-110l-99 -468h109zM954 884l76 32l67 -63l94 63l63 -32l-124 -101h-96z" />
    <glyph glyph-name="uni01C5" unicode="&#x1c5;" horiz-adv-x="1163" 
d="M161 710h247q92 0 151 -36.5t88 -98.5t29 -140q0 -94 -31.5 -173.5t-88 -138t-133 -91t-166.5 -32.5h-247zM282 121q58 0 104.5 23.5t79.5 64.5t50.5 94t17.5 112q0 52 -17 91t-50.5 61t-84.5 22h-110l-99 -468h109zM672 82l342 348h-257l20 94h400l-17 -82l-341 -348
h272l-21 -94h-416zM845 698l77 32l67 -63l94 63l63 -32l-124 -101h-96z" />
    <glyph glyph-name="uni01C6" unicode="&#x1c6;" horiz-adv-x="1094" 
d="M201 -10q-58 0 -99.5 28.5t-64 77t-22.5 109.5q0 65 23 124t63.5 105t92 72.5t108.5 26.5q54 0 92 -28.5t52 -72.5l64 298h134l-122 -576q-1 -5 -2 -9.5t-1 -8.5q0 -21 24 -22l-24 -114q-18 -3 -31.5 -5t-23.5 -2q-35 0 -55.5 14.5t-20.5 42.5q0 5 1 11t2 13.5t3 16.5
q-38 -49 -90 -75t-103 -26zM261 104q17 0 36 6.5t37.5 18t34.5 28t27 35.5l26 125q-3 29 -18 52t-37 36.5t-47 13.5q-32 0 -61.5 -16.5t-52.5 -44t-36.5 -62t-13.5 -70.5q0 -34 13 -62t36.5 -44t55.5 -16zM603 82l342 348h-257l21 94h399l-17 -82l-341 -348h272l-20 -94
h-417zM777 698l76 32l67 -63l94 63l63 -32l-124 -101h-96z" />
    <glyph glyph-name="uni01C7" unicode="&#x1c7;" horiz-adv-x="1040" 
d="M161 710h137l-125 -589h339l-25 -121h-477zM655 -11q-43 0 -77 11t-60 33l54 112q10 -9 39.5 -21.5t69.5 -12.5q38 0 64.5 15t44.5 44.5t31 74t26 104.5l77 360h138l-77 -360q-17 -81 -40 -147t-58 -114t-91.5 -73.5t-140.5 -25.5z" />
    <glyph glyph-name="uni01C8" unicode="&#x1c8;" horiz-adv-x="819" 
d="M161 710h137l-125 -589h339l-25 -121h-477zM478 -196q-36 0 -66.5 11.5t-51.5 35.5l76 91q9 -12 22.5 -17t27.5 -5q16 0 31 8.5t26 23.5t15 34l115 538h134l-112 -528q-12 -56 -44.5 -100t-77.5 -68t-95 -24zM717 730h134l-29 -133h-134z" />
    <glyph glyph-name="uni01C9" unicode="&#x1c9;" horiz-adv-x="567" 
d="M121 -8q-50 0 -77.5 23.5t-27.5 67.5q0 9 1.5 18.5t2.5 19.5l130 609h133l-119 -562q-1 -5 -1.5 -10t-0.5 -10q0 -41 41 -41q11 0 25.5 4t27.5 10l-4 -102q-28 -13 -65 -20t-66 -7zM226 -196q-36 0 -66.5 11.5t-51.5 35.5l76 91q9 -12 22.5 -17t27.5 -5q16 0 31 8.5
t26 23.5t15 34l115 538h134l-112 -528q-12 -56 -44.5 -100t-77.5 -68t-95 -24zM465 730h134l-29 -133h-134z" />
    <glyph glyph-name="uni01CA" unicode="&#x1ca;" horiz-adv-x="1212" 
d="M161 710h107l242 -466l99 465h137l-151 -709h-111l-241 455l-96 -455h-137zM827 -11q-43 0 -77 11t-60 33l54 112q10 -9 39.5 -21.5t69.5 -12.5q38 0 64.5 15t44.5 44.5t31 74t26 104.5l77 360h138l-77 -360q-17 -81 -40 -147t-58 -114t-91.5 -73.5t-140.5 -25.5z" />
    <glyph glyph-name="uni01CB" unicode="&#x1cb;" horiz-adv-x="991" 
d="M161 710h107l242 -466l99 465h137l-151 -709h-111l-241 455l-96 -455h-137zM650 -196q-36 0 -66.5 11.5t-51.5 35.5l76 91q9 -12 22.5 -17t27.5 -5q16 0 31 8.5t26 23.5t15 34l115 538h134l-112 -528q-12 -56 -44.5 -100t-77.5 -68t-95 -24zM889 730h134l-29 -133h-134z
" />
    <glyph glyph-name="uni01CC" unicode="&#x1cc;" horiz-adv-x="840" 
d="M107 524h121l-21 -97q26 34 60.5 57.5t75 36t83.5 12.5q46 0 71 -16t35.5 -43.5t10.5 -61.5q0 -21 -3 -42t-7 -43l-69 -327h-134l62 294q4 15 5.5 28t1.5 25q0 35 -15.5 51.5t-41.5 16.5q-24 0 -52 -14t-53 -38.5t-42 -56.5l-65 -306h-134zM499 -196q-36 0 -66.5 11.5
t-51.5 35.5l76 91q9 -12 22.5 -17t27.5 -5q16 0 31 8.5t26 23.5t15 34l115 538h134l-112 -528q-12 -56 -44.5 -100t-77.5 -68t-95 -24zM738 730h134l-29 -133h-134z" />
    <glyph glyph-name="Gcaron" unicode="&#x1e6;" horiz-adv-x="697" 
d="M291 -5q-56 0 -103 22t-80.5 61.5t-52 93t-18.5 115.5q0 86 34.5 163t93.5 137t133 94t155 34q95 0 154.5 -42.5t79.5 -112.5l-119 -76q-13 53 -52.5 81t-92.5 28q-49 0 -93.5 -24.5t-78.5 -65.5t-53.5 -93t-19.5 -108q0 -52 18 -94t52 -66.5t81 -24.5q51 0 103 28
t103 82l-29 -136q-52 -49 -105 -72.5t-110 -23.5zM533 264h-135l22 101h249l-78 -365h-114zM335 882l76 32l67 -63l94 63l63 -32l-124 -101h-96z" />
    <glyph glyph-name="gcaron" unicode="&#x1e7;" horiz-adv-x="611" 
d="M162 -223q-82 0 -132.5 28.5t-79.5 80.5l88 71q20 -37 58 -58t87 -21q39 0 75 15.5t63.5 48t37.5 83.5l14 66q-34 -45 -83.5 -69.5t-99.5 -24.5q-55 0 -94.5 28t-59.5 75.5t-20 105.5q0 65 23.5 124t65 104.5t95 72t112.5 26.5q58 0 95.5 -27.5t55.5 -73.5l19 92h118
l-107 -499q-16 -78 -64 -133.5t-117 -85t-150 -29.5zM259 104q20 0 39.5 7t37.5 19t33 28.5t26 33.5l26 125q-4 31 -19 54t-36.5 35.5t-47.5 12.5q-33 0 -62 -17t-52 -44.5t-36 -61.5t-13 -70q0 -33 13 -61.5t36.5 -44.5t54.5 -16zM228 696l76 32l67 -63l94 63l63 -32
l-124 -101h-96z" />
    <glyph glyph-name="uni01EA" unicode="&#x1ea;" horiz-adv-x="729" 
d="M299 -5q-63 0 -112 24t-82.5 65.5t-50.5 94.5t-17 111q0 64 22 126.5t61.5 116t92.5 94.5t114.5 64.5t127.5 23.5q62 0 110.5 -24.5t82 -66.5t50 -95t16.5 -111q0 -64 -22 -125.5t-61 -115.5t-91.5 -95t-114 -64t-126.5 -23zM326 117q55 0 100.5 26.5t79 69.5t51 94.5
t17.5 100.5q0 50 -16.5 91.5t-49 67t-82.5 25.5q-55 0 -100.5 -26t-78.5 -69t-51.5 -94.5t-18.5 -101.5q0 -49 16.5 -91t49.5 -67.5t83 -25.5zM187 -124q0 36 29.5 73t87.5 72h42l6 -21q-38 -29 -58 -51.5t-20 -42.5q0 -14 11.5 -21.5t33.5 -8.5l-43 -76q-46 6 -67.5 28
t-21.5 48z" />
    <glyph glyph-name="uni01EB" unicode="&#x1eb;" horiz-adv-x="586" 
d="M234 -10q-76 0 -124.5 30t-71.5 80.5t-23 111.5q0 64 23.5 122t66.5 103t101.5 70.5t128.5 25.5q76 0 124.5 -30t71.5 -80t23 -112q0 -64 -23.5 -122t-66.5 -103t-101.5 -70.5t-128.5 -25.5zM254 104q31 0 60 14t51.5 40t36 61t13.5 76q0 37 -11.5 65t-34 43.5
t-54.5 15.5q-31 0 -59.5 -14t-51.5 -40t-36.5 -61.5t-13.5 -76.5q0 -36 11.5 -64t34 -43.5t54.5 -15.5zM129 -124q0 36 29.5 73t87.5 72h42l6 -21q-38 -29 -58 -51.5t-20 -42.5q0 -14 11.5 -21.5t33.5 -8.5l-43 -76q-46 6 -67.5 28t-21.5 48z" />
    <glyph glyph-name="uni01F1" unicode="&#x1f1;" horiz-adv-x="1279" 
d="M161 710h247q92 0 151 -36.5t88 -98.5t29 -140q0 -94 -31.5 -173.5t-88 -138t-133 -91t-166.5 -32.5h-247zM282 121q58 0 104.5 23.5t79.5 65t50.5 94.5t17.5 111q0 52 -17 91t-50.5 61t-84.5 22h-110l-99 -468h109zM669 104l476 485h-361l25 121h521l-22 -104l-463 -485
h362l-25 -121h-535z" />
    <glyph glyph-name="uni01F2" unicode="&#x1f2;" horiz-adv-x="1161" 
d="M161 710h247q92 0 151 -36.5t88 -98.5t29 -140q0 -94 -31.5 -173.5t-88 -138t-133 -91t-166.5 -32.5h-247zM282 121q58 0 104.5 23.5t79.5 65t50.5 94.5t17.5 111q0 52 -17 91t-50.5 61t-84.5 22h-110l-99 -468h109zM669 82l342 348h-256l20 94h400l-18 -82l-341 -348
h272l-20 -94h-416z" />
    <glyph glyph-name="uni01F3" unicode="&#x1f3;" horiz-adv-x="1094" 
d="M201 -10q-58 0 -99.5 28.5t-64 77t-22.5 109.5q0 65 23 124t63.5 105t92 72.5t108.5 26.5q54 0 92 -28.5t52 -72.5l64 298h134l-122 -576q-1 -5 -2 -9.5t-1 -8.5q0 -21 24 -22l-24 -114q-18 -3 -31.5 -5t-23.5 -2q-35 0 -55.5 14.5t-20.5 42.5q0 5 1 11t2 13.5t3 16.5
q-38 -49 -90 -75t-103 -26zM261 104q17 0 36 6.5t37.5 18t34.5 28t27 35.5l26 125q-3 29 -18 52t-37 36.5t-47 13.5q-32 0 -61.5 -16.5t-52.5 -44t-36.5 -62t-13.5 -70.5q0 -34 13 -62t36.5 -44t55.5 -16zM603 82l342 348h-256l20 94h400l-18 -82l-341 -348h272l-20 -94
h-416z" />
    <glyph glyph-name="uni01F4" unicode="&#x1f4;" horiz-adv-x="697" 
d="M291 -5q-56 0 -103 22t-80.5 61.5t-52 93t-18.5 115.5q0 86 34.5 163t93.5 137t133 94t155 34q95 0 154.5 -42.5t79.5 -112.5l-119 -76q-13 53 -52.5 81t-92.5 28q-49 0 -93.5 -24.5t-78.5 -65.5t-53.5 -93t-19.5 -108q0 -52 18 -94t52 -66.5t81 -24.5q51 0 103 28
t103 82l-29 -136q-52 -49 -105 -72.5t-110 -23.5zM533 264h-135l22 101h249l-78 -365h-114zM497 780l-87 17l76 119h124z" />
    <glyph glyph-name="uni01F5" unicode="&#x1f5;" horiz-adv-x="611" 
d="M162 -223q-82 0 -132.5 28.5t-79.5 80.5l88 71q20 -37 58 -58t87 -21q39 0 75 15.5t63.5 48t37.5 83.5l14 66q-34 -45 -83.5 -69.5t-99.5 -24.5q-55 0 -94.5 28t-59.5 75.5t-20 105.5q0 65 23.5 124t65 104.5t95 72t112.5 26.5q58 0 95.5 -27.5t55.5 -73.5l19 92h118
l-107 -499q-16 -78 -64 -133.5t-117 -85t-150 -29.5zM259 104q20 0 39.5 7t37.5 19t33 28.5t26 33.5l26 125q-4 31 -19 54t-36.5 35.5t-47.5 12.5q-33 0 -62 -17t-52 -44.5t-36 -61.5t-13 -70q0 -33 13 -61.5t36.5 -44.5t54.5 -16zM449 594l-87 17l76 119h124z" />
    <glyph glyph-name="Aringacute" unicode="&#x1fa;" horiz-adv-x="645" 
d="M479 806l-87 15l76 114h124zM352 710h123l103 -710h-142l-22 177h-229l-96 -177h-142zM411 274l-31 279l-152 -279h183zM327 749q0 43 32.5 67.5t81.5 24.5q38 0 59 -16.5t21 -46.5q0 -42 -32 -66.5t-81 -24.5q-38 0 -59.5 16.5t-21.5 45.5zM432 799q-19 0 -33 -11.5
t-14 -29.5q0 -13 8.5 -21.5t22.5 -8.5q18 0 33 12.5t15 29.5q0 13 -9 21t-23 8z" />
    <glyph glyph-name="aringacute" unicode="&#x1fb;" horiz-adv-x="624" 
d="M201 -10q-58 0 -99.5 28.5t-64 77t-22.5 109.5q0 65 23 124t63.5 105t92 72.5t108.5 26.5q54 0 92 -28.5t52 -72.5l20 90h134l-78 -368q-1 -5 -2 -9.5t-1 -8.5q0 -21 24 -22l-24 -114q-18 -3 -31.5 -5t-23.5 -2q-36 0 -56 15t-20 45q0 4 1 9.5t2 13t3 15.5
q-38 -49 -90 -75t-103 -26zM261 104q17 0 36 6.5t37.5 18t34.5 28t27 35.5l26 125q-3 29 -18 52t-37 36.5t-47 13.5q-32 0 -61.5 -16.5t-52.5 -44t-36.5 -62t-13.5 -70.5q0 -34 13 -62t36.5 -44t55.5 -16zM289 638q0 43 32.5 67.5t81.5 24.5q37 0 58.5 -16t21.5 -46
q0 -43 -32 -67.5t-81 -24.5q-38 0 -59.5 16.5t-21.5 45.5zM393 689q-18 0 -32 -11.5t-14 -30.5q0 -13 8.5 -21.5t22.5 -8.5q18 0 32.5 12.5t14.5 30.5q0 13 -9 21t-23 8zM458 802l-87 17l76 119h124z" />
    <glyph glyph-name="AEacute" unicode="&#x1fc;" horiz-adv-x="929" 
d="M490 710h484l-26 -121h-311l-35 -167h259l-26 -121h-259l-38 -180h318l-25 -121h-456l38 177h-213l-133 -177h-147zM428 297l55 258l-198 -258h143zM667 780l-87 17l76 119h124z" />
    <glyph glyph-name="aeacute" unicode="&#x1fd;" horiz-adv-x="894" 
d="M132 -10q-65 0 -103.5 39t-38.5 98q0 57 34 102t91.5 70.5t126.5 25.5q31 0 59 -5t48 -15q6 19 12 34t6 32q0 31 -22.5 50t-67.5 19q-39 0 -80 -15t-88 -44l-22 85q112 67 224 67q58 0 97.5 -19t59.5 -55q40 34 89 54t104 20q70 0 116.5 -29.5t70.5 -79t24 -110.5
q0 -38 -7.5 -60t-11.5 -35h-384q-1 -5 -1.5 -11.5t-0.5 -13.5q0 -33 13.5 -56.5t37 -36.5t53.5 -13q37 0 74 19.5t56 51.5l107 -32q-26 -40 -66.5 -71t-90 -48.5t-105.5 -17.5q-71 0 -120 29.5t-72 78.5q-30 -39 -70.5 -62.5t-80.5 -34.5t-71 -11zM192 88q18 0 39 5.5t41 15
t35.5 22t23.5 26.5q-1 5 -1.5 11.5t-0.5 13.5q0 13 1.5 26t3.5 25q-19 8 -42 12.5t-44 4.5q-34 0 -63.5 -12.5t-46.5 -34.5t-17 -50q0 -18 8 -33t23.5 -23.5t39.5 -8.5zM735 302q1 7 1 12.5v12.5q0 33 -11.5 57.5t-34 38t-53.5 13.5q-34 0 -65 -17t-54 -47t-34 -70h251z
M524 594l-87 17l76 119h124z" />
    <glyph glyph-name="Oslashacute" unicode="&#x1fe;" horiz-adv-x="729" 
d="M299 -5q-63 0 -112 24t-82.5 65.5t-50.5 94.5t-17 111q0 64 22 126.5t61.5 116t92.5 94.5t114.5 64.5t127.5 23.5q62 0 110.5 -24.5t82 -66.5t50 -95t16.5 -111q0 -64 -22 -125.5t-61 -115.5t-91.5 -95t-114 -64t-126.5 -23zM326 117q55 0 100.5 26.5t79 69.5t51 94.5
t17.5 100.5q0 50 -16.5 91.5t-49 67t-82.5 25.5q-55 0 -100.5 -26t-78.5 -69t-51.5 -94.5t-18.5 -101.5q0 -49 16.5 -91t49.5 -67.5t83 -25.5zM768 710l-624 -710h-148l624 710h148zM505 780l-87 17l76 119h124z" />
    <glyph glyph-name="oslashacute" unicode="&#x1ff;" horiz-adv-x="586" 
d="M431 594l-87 17l76 119h124zM227 -10q-69 0 -116.5 29.5t-71.5 79.5t-24 109q0 63 24.5 120.5t68.5 104t104 73.5t131 27q69 0 116 -29.5t71 -79.5t24 -110q0 -61 -24 -119.5t-68 -104.5t-104 -73t-131 -27zM251 104q32 0 61 15t52.5 41.5t37 62t13.5 75.5q0 36 -12 63
t-34 42.5t-51 15.5q-31 0 -60.5 -15t-52.5 -42t-37 -62t-14 -75q0 -36 12 -63t34 -42.5t51 -15.5zM117 123l31 -41l-90 -86h-74zM129 130l286 308l37 -29l-295 -315zM424 449l81 79h76l-116 -111z" />
    <glyph glyph-name="uni0200" unicode="&#x200;" horiz-adv-x="645" 
d="M352 710h123l103 -710h-142l-22 177h-229l-96 -177h-142zM411 274l-31 279l-152 -279h183zM426 919h102l20 -119l-73 -18zM270 919h103l19 -119l-73 -18z" />
    <glyph glyph-name="uni0201" unicode="&#x201;" horiz-adv-x="624" 
d="M201 -10q-58 0 -99.5 28.5t-64 77t-22.5 109.5q0 65 23 124t63.5 105t92 72.5t108.5 26.5q54 0 92 -28.5t52 -72.5l20 90h134l-78 -368q-1 -5 -2 -9.5t-1 -8.5q0 -21 24 -22l-24 -114q-18 -3 -31.5 -5t-23.5 -2q-36 0 -56 15t-20 45q0 4 1 9.5t2 13t3 15.5
q-38 -49 -90 -75t-103 -26zM261 104q17 0 36 6.5t37.5 18t34.5 28t27 35.5l26 125q-3 29 -18 52t-37 36.5t-47 13.5q-32 0 -61.5 -16.5t-52.5 -44t-36.5 -62t-13.5 -70.5q0 -34 13 -62t36.5 -44t55.5 -16zM373 733h102l20 -119l-73 -18zM217 733h103l19 -119l-73 -18z" />
    <glyph glyph-name="uni0202" unicode="&#x202;" horiz-adv-x="645" 
d="M352 710h123l103 -710h-142l-22 177h-229l-96 -177h-142zM411 274l-31 279l-152 -279h183zM300 784q8 39 31 69.5t55.5 47.5t68.5 17q49 0 76.5 -30t27.5 -74q0 -7 -1 -14.5t-3 -15.5h-71q2 8 2.5 15t0.5 13q0 46 -43 46q-28 0 -46.5 -18t-26.5 -56h-71z" />
    <glyph glyph-name="uni0203" unicode="&#x203;" horiz-adv-x="624" 
d="M201 -10q-58 0 -99.5 28.5t-64 77t-22.5 109.5q0 65 23 124t63.5 105t92 72.5t108.5 26.5q54 0 92 -28.5t52 -72.5l20 90h134l-78 -368q-1 -5 -2 -9.5t-1 -8.5q0 -21 24 -22l-24 -114q-18 -3 -31.5 -5t-23.5 -2q-36 0 -56 15t-20 45q0 4 1 9.5t2 13t3 15.5
q-38 -49 -90 -75t-103 -26zM261 104q17 0 36 6.5t37.5 18t34.5 28t27 35.5l26 125q-3 29 -18 52t-37 36.5t-47 13.5q-32 0 -61.5 -16.5t-52.5 -44t-36.5 -62t-13.5 -70.5q0 -34 13 -62t36.5 -44t55.5 -16zM244 598q8 39 31 69.5t55.5 47.5t68.5 17q49 0 76.5 -30t27.5 -74
q0 -7 -1 -14.5t-3 -15.5h-71q2 8 2.5 15t0.5 13q0 46 -43 46q-28 0 -46.5 -18t-26.5 -56h-71z" />
    <glyph glyph-name="uni0204" unicode="&#x204;" horiz-adv-x="578" 
d="M161 710h460l-25 -121h-324l-36 -171h279l-24 -112h-279l-39 -185h332l-26 -121h-469zM398 919h102l20 -119l-73 -18zM242 919h103l19 -119l-73 -18z" />
    <glyph glyph-name="uni0205" unicode="&#x205;" horiz-adv-x="551" 
d="M230 -10q-66 0 -114.5 28.5t-74 79t-25.5 114.5q0 65 25 123t70 102.5t105 70t130 25.5q57 0 99 -17t65 -49.5t23 -79.5q0 -83 -75.5 -126t-226.5 -43q-30 0 -65 1.5t-76 5.5l17 84q36 -3 66 -4.5t59 -1.5q65 0 102.5 9t54.5 26t17 40q0 20 -10 32.5t-27.5 19t-41.5 6.5
q-39 0 -71.5 -18.5t-56.5 -50.5t-37 -73t-13 -87q0 -34 11.5 -61.5t34.5 -42.5t59 -15q40 0 75.5 19t56.5 53l106 -33q-26 -40 -68 -71t-92 -48.5t-102 -17.5zM360 731h102l20 -119l-73 -18zM204 731h103l19 -119l-73 -18z" />
    <glyph glyph-name="uni0206" unicode="&#x206;" horiz-adv-x="578" 
d="M161 710h460l-25 -121h-324l-36 -171h279l-24 -112h-279l-39 -185h332l-26 -121h-469zM270 784q8 39 31 69.5t55.5 47.5t68.5 17q49 0 76.5 -30t27.5 -74q0 -7 -1 -14.5t-3 -15.5h-71q2 8 2.5 15t0.5 13q0 46 -43 46q-28 0 -46.5 -18t-26.5 -56h-71z" />
    <glyph glyph-name="uni0207" unicode="&#x207;" horiz-adv-x="551" 
d="M230 -10q-66 0 -114.5 28.5t-74 79t-25.5 114.5q0 65 25 123t70 102.5t105 70t130 25.5q57 0 99 -17t65 -49.5t23 -79.5q0 -83 -75.5 -126t-226.5 -43q-30 0 -65 1.5t-76 5.5l17 84q36 -3 66 -4.5t59 -1.5q65 0 102.5 9t54.5 26t17 40q0 20 -10 32.5t-27.5 19t-41.5 6.5
q-39 0 -71.5 -18.5t-56.5 -50.5t-37 -73t-13 -87q0 -34 11.5 -61.5t34.5 -42.5t59 -15q40 0 75.5 19t56.5 53l106 -33q-26 -40 -68 -71t-92 -48.5t-102 -17.5zM228 596q8 39 31 69.5t55.5 47.5t68.5 17q49 0 76.5 -30t27.5 -74q0 -7 -1 -14.5t-3 -15.5h-71q2 8 2.5 15
t0.5 13q0 46 -43 46q-28 0 -46.5 -18t-26.5 -56h-71z" />
    <glyph glyph-name="uni0208" unicode="&#x208;" horiz-adv-x="285" 
d="M161 709h137l-151 -709h-137zM244 919h102l20 -119l-73 -18zM88 919h103l19 -119l-73 -18z" />
    <glyph glyph-name="uni0209" unicode="&#x209;" horiz-adv-x="253" 
d="M107 524h134l-111 -524h-134zM185 730h102l20 -119l-73 -18zM29 730h103l19 -119l-73 -18z" />
    <glyph glyph-name="uni020A" unicode="&#x20a;" horiz-adv-x="285" 
d="M161 709h137l-151 -709h-137zM116 784q8 39 31 69.5t55.5 47.5t68.5 17q49 0 76.5 -30t27.5 -74q0 -7 -1 -14.5t-3 -15.5h-71q2 8 2.5 15t0.5 13q0 46 -43 46q-28 0 -46.5 -18t-26.5 -56h-71z" />
    <glyph glyph-name="uni020B" unicode="&#x20b;" horiz-adv-x="253" 
d="M107 524h134l-111 -524h-134zM58 598q8 39 31 69.5t55.5 47.5t68.5 17q49 0 76.5 -30t27.5 -74q0 -7 -1 -14.5t-3 -15.5h-71q2 8 2.5 15t0.5 13q0 46 -43 46q-28 0 -46.5 -18t-26.5 -56h-71z" />
    <glyph glyph-name="uni020C" unicode="&#x20c;" horiz-adv-x="729" 
d="M299 -5q-63 0 -112 24t-82.5 65.5t-50.5 94.5t-17 111q0 64 22 126.5t61.5 116t92.5 94.5t114.5 64.5t127.5 23.5q62 0 110.5 -24.5t82 -66.5t50 -95t16.5 -111q0 -64 -22 -125.5t-61 -115.5t-91.5 -95t-114 -64t-126.5 -23zM326 117q55 0 100.5 26.5t79 69.5t51 94.5
t17.5 100.5q0 50 -16.5 91.5t-49 67t-82.5 25.5q-55 0 -100.5 -26t-78.5 -69t-51.5 -94.5t-18.5 -101.5q0 -49 16.5 -91t49.5 -67.5t83 -25.5zM465 917h102l20 -119l-73 -18zM309 917h103l19 -119l-73 -18z" />
    <glyph glyph-name="uni020D" unicode="&#x20d;" horiz-adv-x="586" 
d="M234 -10q-76 0 -124.5 30t-71.5 80.5t-23 111.5q0 64 23.5 122t66.5 103t101.5 70.5t128.5 25.5q76 0 124.5 -30t71.5 -80t23 -112q0 -64 -23.5 -122t-66.5 -103t-101.5 -70.5t-128.5 -25.5zM254 104q31 0 60 14t51.5 40t36 61t13.5 76q0 37 -11.5 65t-34 43.5
t-54.5 15.5q-31 0 -59.5 -14t-51.5 -40t-36.5 -61.5t-13.5 -76.5q0 -36 11.5 -64t34 -43.5t54.5 -15.5zM347 730h102l20 -119l-73 -18zM191 730h103l19 -119l-73 -18z" />
    <glyph glyph-name="uni020E" unicode="&#x20e;" horiz-adv-x="729" 
d="M299 -5q-63 0 -112 24t-82.5 65.5t-50.5 94.5t-17 111q0 64 22 126.5t61.5 116t92.5 94.5t114.5 64.5t127.5 23.5q62 0 110.5 -24.5t82 -66.5t50 -95t16.5 -111q0 -64 -22 -125.5t-61 -115.5t-91.5 -95t-114 -64t-126.5 -23zM326 117q55 0 100.5 26.5t79 69.5t51 94.5
t17.5 100.5q0 50 -16.5 91.5t-49 67t-82.5 25.5q-55 0 -100.5 -26t-78.5 -69t-51.5 -94.5t-18.5 -101.5q0 -49 16.5 -91t49.5 -67.5t83 -25.5zM340 782q8 39 31 69.5t55.5 47.5t68.5 17q49 0 76.5 -30t27.5 -74q0 -7 -1 -14.5t-3 -15.5h-71q2 8 2.5 15t0.5 13q0 46 -43 46
q-28 0 -46.5 -18t-26.5 -56h-71z" />
    <glyph glyph-name="uni020F" unicode="&#x20f;" horiz-adv-x="586" 
d="M234 -10q-76 0 -124.5 30t-71.5 80.5t-23 111.5q0 64 23.5 122t66.5 103t101.5 70.5t128.5 25.5q76 0 124.5 -30t71.5 -80t23 -112q0 -64 -23.5 -122t-66.5 -103t-101.5 -70.5t-128.5 -25.5zM254 104q31 0 60 14t51.5 40t36 61t13.5 76q0 37 -11.5 65t-34 43.5
t-54.5 15.5q-31 0 -59.5 -14t-51.5 -40t-36.5 -61.5t-13.5 -76.5q0 -36 11.5 -64t34 -43.5t54.5 -15.5zM227 596q8 39 31 69.5t55.5 47.5t68.5 17q49 0 76.5 -30t27.5 -74q0 -7 -1 -14.5t-3 -15.5h-71q2 8 2.5 15t0.5 13q0 46 -43 46q-28 0 -46.5 -18t-26.5 -56h-71z" />
    <glyph glyph-name="uni0210" unicode="&#x210;" horiz-adv-x="642" 
d="M10 0l151 710h300q54 0 92 -28t58.5 -73t20.5 -95q0 -39 -12.5 -76.5t-35.5 -70.5t-53.5 -59t-66.5 -41l96 -267h-156l-84 238h-123l-50 -238h-137zM382 359q21 0 40 11.5t34.5 31t24.5 45t9 53.5q0 26 -8.5 46t-23 31.5t-32.5 11.5h-154l-49 -230h159zM408 919h102
l20 -119l-73 -18zM252 919h103l19 -119l-73 -18z" />
    <glyph glyph-name="uni0211" unicode="&#x211;" horiz-adv-x="378" 
d="M107 524h123l-24 -112q38 54 85.5 85.5t93.5 31.5q10 0 15.5 -0.5t8.5 -1.5l-25 -119q-57 0 -107.5 -23.5t-79.5 -67.5l-67 -317h-134zM251 731h102l20 -119l-73 -18zM95 731h103l19 -119l-73 -18z" />
    <glyph glyph-name="uni0212" unicode="&#x212;" horiz-adv-x="642" 
d="M10 0l151 710h300q54 0 92 -28t58.5 -73t20.5 -95q0 -39 -12.5 -76.5t-35.5 -70.5t-53.5 -59t-66.5 -41l96 -267h-156l-84 238h-123l-50 -238h-137zM382 359q21 0 40 11.5t34.5 31t24.5 45t9 53.5q0 26 -8.5 46t-23 31.5t-32.5 11.5h-154l-49 -230h159zM283 784
q8 39 31 69.5t55.5 47.5t68.5 17q49 0 76.5 -30t27.5 -74q0 -7 -1 -14.5t-3 -15.5h-71q2 8 2.5 15t0.5 13q0 46 -43 46q-28 0 -46.5 -18t-26.5 -56h-71z" />
    <glyph glyph-name="uni0213" unicode="&#x213;" horiz-adv-x="378" 
d="M107 524h123l-24 -112q38 54 85.5 85.5t93.5 31.5q10 0 15.5 -0.5t8.5 -1.5l-25 -119q-57 0 -107.5 -23.5t-79.5 -67.5l-67 -317h-134zM133 596q8 39 31 69.5t55.5 47.5t68.5 17q49 0 76.5 -30t27.5 -74q0 -7 -1 -14.5t-3 -15.5h-71q2 8 2.5 15t0.5 13q0 46 -43 46
q-28 0 -46.5 -18t-26.5 -56h-71z" />
    <glyph glyph-name="uni0214" unicode="&#x214;" horiz-adv-x="720" 
d="M295 -5q-85 0 -136.5 32t-74.5 86t-23 122q0 27 3 55.5t10 57.5l77 362h137l-77 -362q-5 -23 -7.5 -45t-2.5 -44q0 -40 11 -72t37.5 -51t70.5 -19q46 0 80.5 19.5t60 52.5t42 74.5t26.5 84.5l77 362h137l-77 -362q-15 -73 -46 -137t-77 -112.5t-108 -76t-140 -27.5z
M460 917h102l20 -119l-73 -18zM304 917h103l19 -119l-73 -18z" />
    <glyph glyph-name="uni0215" unicode="&#x215;" horiz-adv-x="595" 
d="M145 -10q-123 0 -123 128q0 18 2.5 37t7.5 41l70 328h133l-63 -299q-7 -29 -7 -50q0 -71 60 -71q24 0 48.5 10.5t49.5 31.5t46 53l69 325h134l-79 -370q-1 -5 -1.5 -9.5t-0.5 -8.5q0 -21 24 -22l-24 -114q-18 -3 -31.5 -5t-24.5 -2q-34 0 -54 14t-20 43q0 5 0.5 11
t2 15.5t4.5 21.5q-45 -53 -102.5 -80.5t-120.5 -27.5zM359 733h102l20 -119l-73 -18zM203 733h103l19 -119l-73 -18z" />
    <glyph glyph-name="uni0216" unicode="&#x216;" horiz-adv-x="720" 
d="M295 -5q-85 0 -136.5 32t-74.5 86t-23 122q0 27 3 55.5t10 57.5l77 362h137l-77 -362q-5 -23 -7.5 -45t-2.5 -44q0 -40 11 -72t37.5 -51t70.5 -19q46 0 80.5 19.5t60 52.5t42 74.5t26.5 84.5l77 362h137l-77 -362q-15 -73 -46 -137t-77 -112.5t-108 -76t-140 -27.5z
M332 782q8 39 31 69.5t55.5 47.5t68.5 17q49 0 76.5 -30t27.5 -74q0 -7 -1 -14.5t-3 -15.5h-71q2 8 2.5 15t0.5 13q0 46 -43 46q-28 0 -46.5 -18t-26.5 -56h-71z" />
    <glyph glyph-name="uni0217" unicode="&#x217;" horiz-adv-x="595" 
d="M145 -10q-123 0 -123 128q0 18 2.5 37t7.5 41l70 328h133l-63 -299q-7 -29 -7 -50q0 -71 60 -71q24 0 48.5 10.5t49.5 31.5t46 53l69 325h134l-79 -370q-1 -5 -1.5 -9.5t-0.5 -8.5q0 -21 24 -22l-24 -114q-18 -3 -31.5 -5t-24.5 -2q-34 0 -54 14t-20 43q0 5 0.5 11
t2 15.5t4.5 21.5q-45 -53 -102.5 -80.5t-120.5 -27.5zM230 598q8 39 31 69.5t55.5 47.5t68.5 17q49 0 76.5 -30t27.5 -74q0 -7 -1 -14.5t-3 -15.5h-71q2 8 2.5 15t0.5 13q0 46 -43 46q-28 0 -46.5 -18t-26.5 -56h-71z" />
    <glyph glyph-name="uni0218" unicode="&#x218;" horiz-adv-x="592" 
d="M243 -8q-75 0 -145 24.5t-119 67.5l86 119q6 -9 24 -23.5t46 -29t63 -24.5t74 -10q40 0 66.5 10.5t39.5 30t13 45.5q0 27 -19.5 43t-53.5 28.5t-78 26.5q-50 16 -84 36t-51.5 48.5t-17.5 68.5q0 62 24.5 111t67 82.5t96.5 51t113 17.5q47 0 87.5 -11t74 -29t58.5 -39
l-85 -112q-3 7 -18 19t-38 23t-51 19.5t-58 8.5q-39 0 -66.5 -12t-40.5 -33t-13 -50q0 -22 15.5 -37t44.5 -25.5t71 -23.5q53 -15 92.5 -36t61.5 -52.5t22 -80.5q0 -67 -25.5 -115t-68.5 -78t-96.5 -44.5t-111.5 -14.5zM151 -213l43 72h-40l20 94h113l-20 -94l-55 -72h-61z
" />
    <glyph glyph-name="uni0219" unicode="&#x219;" horiz-adv-x="480" 
d="M186 -10q-64 0 -120.5 21t-90.5 60l67 84q38 -33 78 -50.5t81 -17.5q28 0 48 8.5t31 23t11 33.5q0 25 -22 37t-69 26q-52 17 -85.5 32.5t-49.5 37t-16 54.5q0 56 31.5 100t85 69.5t119.5 25.5q57 0 102 -17.5t80 -54.5l-71 -81q-32 30 -61.5 43.5t-64.5 13.5
q-26 0 -46.5 -7.5t-32.5 -22.5t-12 -36q0 -23 18.5 -33.5t64.5 -24.5q56 -16 92 -33.5t54 -41.5t18 -61q0 -55 -30 -97t-84 -66.5t-126 -24.5zM93 -213l43 72h-40l20 94h113l-20 -94l-55 -72h-61z" />
    <glyph glyph-name="uni021A" unicode="&#x21a;" horiz-adv-x="592" 
d="M289 589h-213l25 121h563l-26 -121h-212l-125 -589h-138zM142 -213l43 72h-40l20 94h113l-20 -94l-55 -72h-61z" />
    <glyph glyph-name="uni021B" unicode="&#x21b;" horiz-adv-x="373" 
d="M47 83q0 9 1 18t3 19l64 301h-65l22 103h64l36 170h134l-36 -170h105l-22 -103h-104l-55 -256q-1 -4 -1.5 -8t-0.5 -8q0 -19 11 -27t27 -8q13 0 26.5 3t25.5 8t21 8l4 -106q-20 -9 -45 -17.5t-52 -13.5t-54 -5q-47 0 -78 21.5t-31 70.5zM50 -213l43 72h-40l20 94h113
l-20 -94l-55 -72h-61z" />
    <glyph glyph-name="uni022A" unicode="&#x22a;" horiz-adv-x="729" 
d="M299 -5q-63 0 -112 24t-82.5 65.5t-50.5 94.5t-17 111q0 64 22 126.5t61.5 116t92.5 94.5t114.5 64.5t127.5 23.5q62 0 110.5 -24.5t82 -66.5t50 -95t16.5 -111q0 -64 -22 -125.5t-61 -115.5t-91.5 -95t-114 -64t-126.5 -23zM326 117q55 0 100.5 26.5t79 69.5t51 94.5
t17.5 100.5q0 50 -16.5 91.5t-49 67t-82.5 25.5q-55 0 -100.5 -26t-78.5 -69t-51.5 -94.5t-18.5 -101.5q0 -49 16.5 -91t49.5 -67.5t83 -25.5zM322 788l26 119h111l-26 -119h-111zM510 788l26 119h110l-25 -119h-111zM376 1016l18 83h287l-18 -83h-287z" />
    <glyph glyph-name="uni022B" unicode="&#x22b;" horiz-adv-x="586" 
d="M234 -10q-76 0 -124.5 30t-71.5 80.5t-23 111.5q0 64 23.5 122t66.5 103t101.5 70.5t128.5 25.5q76 0 124.5 -30t71.5 -80t23 -112q0 -64 -23.5 -122t-66.5 -103t-101.5 -70.5t-128.5 -25.5zM254 104q31 0 60 14t51.5 40t36 61t13.5 76q0 37 -11.5 65t-34 43.5
t-54.5 15.5q-31 0 -59.5 -14t-51.5 -40t-36.5 -61.5t-13.5 -76.5q0 -36 11.5 -64t34 -43.5t54.5 -15.5zM209 602l26 119h111l-26 -119h-111zM397 602l26 119h110l-25 -119h-111zM263 830l18 83h287l-18 -83h-287z" />
    <glyph glyph-name="uni022C" unicode="&#x22c;" horiz-adv-x="729" 
d="M299 -5q-63 0 -112 24t-82.5 65.5t-50.5 94.5t-17 111q0 64 22 126.5t61.5 116t92.5 94.5t114.5 64.5t127.5 23.5q62 0 110.5 -24.5t82 -66.5t50 -95t16.5 -111q0 -64 -22 -125.5t-61 -115.5t-91.5 -95t-114 -64t-126.5 -23zM326 117q55 0 100.5 26.5t79 69.5t51 94.5
t17.5 100.5q0 50 -16.5 91.5t-49 67t-82.5 25.5q-55 0 -100.5 -26t-78.5 -69t-51.5 -94.5t-18.5 -101.5q0 -49 16.5 -91t49.5 -67.5t83 -25.5zM534 786q-29 0 -47 11.5t-33 22.5t-36 11t-33 -11.5t-17 -23.5t-5 -13h-74q2 9 12 30t28.5 43.5t43.5 38.5t57 16q22 0 36.5 -7
t26 -16.5t24 -16.5t28.5 -7q23 0 36.5 12t19.5 24t6 14h73q-2 -7 -12 -27t-29 -43.5t-45.5 -40.5t-59.5 -17zM377 1022l18 83h287l-18 -83h-287z" />
    <glyph glyph-name="uni022D" unicode="&#x22d;" horiz-adv-x="586" 
d="M234 -10q-76 0 -124.5 30t-71.5 80.5t-23 111.5q0 64 23.5 122t66.5 103t101.5 70.5t128.5 25.5q76 0 124.5 -30t71.5 -80t23 -112q0 -64 -23.5 -122t-66.5 -103t-101.5 -70.5t-128.5 -25.5zM254 104q31 0 60 14t51.5 40t36 61t13.5 76q0 37 -11.5 65t-34 43.5
t-54.5 15.5q-31 0 -59.5 -14t-51.5 -40t-36.5 -61.5t-13.5 -76.5q0 -36 11.5 -64t34 -43.5t54.5 -15.5zM421 600q-29 0 -47 11.5t-33 22.5t-36 11t-33 -11.5t-17 -23.5t-5 -13h-74q2 9 12 30t28.5 43.5t43.5 38.5t57 16q22 0 36.5 -7t26 -16.5t24 -16.5t28.5 -7
q23 0 36.5 12t19.5 24t6 14h73q-2 -7 -12 -27t-29 -43.5t-45.5 -40.5t-59.5 -17zM264 836l18 83h287l-18 -83h-287z" />
    <glyph glyph-name="uni0232" unicode="&#x232;" horiz-adv-x="619" 
d="M225 250l-144 460h150l88 -342l236 342h149l-343 -462l-52 -248h-137zM258 816l18 83h287l-18 -83h-287z" />
    <glyph glyph-name="uni0233" unicode="&#x233;" horiz-adv-x="520" 
d="M-44 -126q40 3 65.5 10t44.5 22.5t39 43.5l29 39l-87 535h137l45 -408l34 56q31 51 54.5 95.5t41 86t30.5 83.5t24 87h130q-13 -48 -29 -90.5t-38 -88.5t-55.5 -104t-83.5 -138l-80 -129q-35 -56 -67.5 -94.5t-66 -62.5t-70.5 -34.5t-81 -11.5zM172 630l18 83h287
l-18 -83h-287z" />
    <glyph glyph-name="uni0237" unicode="&#x237;" horiz-adv-x="253" 
d="M-88 -196q-36 0 -66.5 11.5t-51.5 35.5l76 91q8 -12 21.5 -17t28.5 -5q16 0 31 8.5t26 23.5t15 34l115 538h134l-112 -528q-12 -56 -45 -100t-77.5 -68t-94.5 -24z" />
    <glyph glyph-name="uni0259" unicode="&#x259;" horiz-adv-x="578" 
d="M219 -10q-70 0 -117.5 27.5t-71.5 74.5t-24 105q0 26 5.5 54.5t14.5 52.5h380q1 6 1 12.5v12.5q0 33 -13 57t-35 36.5t-51 12.5q-25 0 -50 -9t-46 -24.5t-34 -37.5l-107 32q27 40 67 71t90 48.5t106 17.5q69 0 116.5 -29.5t71.5 -79t24 -109.5q0 -62 -24 -120.5
t-68 -104.5t-103.5 -73t-131.5 -27zM242 87q33 0 62.5 17t52.5 47t34 70h-247q-1 -6 -1 -12v-13q0 -49 27 -79t72 -30z" />
    <glyph glyph-name="uni02B9" unicode="&#x2b9;" horiz-adv-x="240" 
d="M111 499l58 224h108l-85 -224h-81z" />
    <glyph glyph-name="uni02BB" unicode="&#x2bb;" horiz-adv-x="209" 
d="M248 730l-41 -63h39l-23 -84h-105l23 84l52 63h55z" />
    <glyph glyph-name="uni02BC" unicode="&#x2bc;" horiz-adv-x="234" 
d="M195 585l-74 26l67 119h115z" />
    <glyph glyph-name="circumflex" unicode="&#x2c6;" horiz-adv-x="400" 
d="M128 629l124 101h96l81 -101l-77 -32l-67 63l-94 -63z" />
    <glyph glyph-name="caron" unicode="&#x2c7;" horiz-adv-x="400" 
d="M143 698l76 32l67 -63l94 63l63 -32l-124 -101h-96z" />
    <glyph glyph-name="uni02C8" unicode="&#x2c8;" horiz-adv-x="212" 
d="M222 775v-394h-114v394h114z" />
    <glyph glyph-name="uni02C9" unicode="&#x2c9;" horiz-adv-x="394" 
d="M139 633l19 83h273l-19 -83h-273z" />
    <glyph glyph-name="uni02CC" unicode="&#x2cc;" horiz-adv-x="212" 
d="M114 264v-394h-114v394h114z" />
    <glyph glyph-name="breve" unicode="&#x2d8;" horiz-adv-x="356" 
d="M262 656q21 0 41.5 21t30.5 53h72q-8 -38 -31 -69t-55.5 -48t-69.5 -17q-48 0 -76 28t-28 73q0 9 1 17t3 16h72l-2 -10t-1 -10q0 -23 12 -38.5t31 -15.5z" />
    <glyph glyph-name="dotaccent" unicode="&#x2d9;" horiz-adv-x="221" 
d="M122 604l28 126h120l-27 -126h-121z" />
    <glyph glyph-name="ring" unicode="&#x2da;" horiz-adv-x="291" 
d="M132 638q0 43 32.5 67.5t81.5 24.5q37 0 58.5 -16t21.5 -46q0 -43 -32 -67.5t-81 -24.5q-38 0 -59.5 16.5t-21.5 45.5zM236 689q-18 0 -32 -11.5t-14 -30.5q0 -13 8.5 -21.5t22.5 -8.5q18 0 32.5 12.5t14.5 30.5q0 13 -9 21t-23 8z" />
    <glyph glyph-name="ogonek" unicode="&#x2db;" horiz-adv-x="240" 
d="M-30 -124q0 36 29.5 73t87.5 72h42l6 -21q-38 -29 -58 -51.5t-20 -42.5q0 -14 11.5 -21.5t33.5 -8.5l-43 -76q-46 6 -67.5 28t-21.5 48z" />
    <glyph glyph-name="tilde" unicode="&#x2dc;" horiz-adv-x="463" 
d="M367 602q-29 0 -47 11.5t-33 22.5t-36 11t-33 -11.5t-17 -23.5t-5 -13h-74q2 9 12 30t28.5 43.5t43.5 38.5t57 16q22 0 36.5 -7t26 -16.5t24 -16.5t28.5 -7q23 0 36.5 12t19.5 24t6 14h73q-2 -7 -12 -27t-29 -43.5t-45.5 -40.5t-59.5 -17z" />
    <glyph glyph-name="hungarumlaut" unicode="&#x2dd;" horiz-adv-x="403" 
d="M191 595l-67 16l70 119h103zM347 595l-67 16l70 119h103z" />
    <glyph glyph-name="gravecomb" unicode="&#x300;" 
d="M150 730h123l26 -119l-93 -18z" />
    <glyph glyph-name="acutecomb" unicode="&#x301;" 
d="M211 594l-87 17l76 119h124z" />
    <glyph glyph-name="uni0302" unicode="&#x302;" 
d="M128 629l124 101h96l81 -101l-77 -32l-67 63l-94 -63z" />
    <glyph glyph-name="tildecomb" unicode="&#x303;" 
d="M367 602q-29 0 -47 11.5t-33 22.5t-36 11t-33 -11.5t-17 -23.5t-5 -13h-74q2 9 12 30t28.5 43.5t43.5 38.5t57 16q22 0 36.5 -7t26 -16.5t24 -16.5t28.5 -7q23 0 36.5 12t19.5 24t6 14h73q-2 -7 -12 -27t-29 -43.5t-45.5 -40.5t-59.5 -17z" />
    <glyph glyph-name="uni0304" unicode="&#x304;" 
d="M128 632l18 83h287l-18 -83h-287z" />
    <glyph glyph-name="uni0306" unicode="&#x306;" 
d="M262 656q21 0 41.5 21t30.5 53h72q-8 -38 -31 -69t-55.5 -48t-69.5 -17q-48 0 -76 28t-28 73q0 9 1 17t3 16h72l-2 -10t-1 -10q0 -23 12 -38.5t31 -15.5z" />
    <glyph glyph-name="uni0307" unicode="&#x307;" 
d="M122 604l28 126h120l-27 -126h-121z" />
    <glyph glyph-name="uni0308" unicode="&#x308;" 
d="M122 604l26 119h111l-26 -119h-111zM310 604l26 119h110l-25 -119h-111z" />
    <glyph glyph-name="hookabovecomb" unicode="&#x309;" 
d="M174 687l-25 41q33 23 61.5 34.5t56.5 11.5q39 0 52 -21.5t2 -52.5q-11 -29 -35.5 -53t-68.5 -51l-20 37q23 14 35 25.5t17 24.5q5 12 0 20t-18 8t-25 -5.5t-32 -18.5z" />
    <glyph glyph-name="uni030A" unicode="&#x30a;" 
d="M132 638q0 43 32.5 67.5t81.5 24.5q37 0 58.5 -16t21.5 -46q0 -43 -32 -67.5t-81 -24.5q-38 0 -59.5 16.5t-21.5 45.5zM236 689q-18 0 -32 -11.5t-14 -30.5q0 -13 8.5 -21.5t22.5 -8.5q18 0 32.5 12.5t14.5 30.5q0 13 -9 21t-23 8z" />
    <glyph glyph-name="uni030B" unicode="&#x30b;" 
d="M191 595l-67 16l70 119h103zM347 595l-67 16l70 119h103z" />
    <glyph glyph-name="uni030C" unicode="&#x30c;" 
d="M143 698l76 32l67 -63l94 63l63 -32l-124 -101h-96z" />
    <glyph glyph-name="uni030F" unicode="&#x30f;" 
d="M306 730h102l20 -119l-73 -18zM150 730h103l19 -119l-73 -18z" />
    <glyph glyph-name="uni0311" unicode="&#x311;" 
d="M121 596q8 39 31 69.5t55.5 47.5t68.5 17q49 0 76.5 -30t27.5 -74q0 -7 -1 -14.5t-3 -15.5h-71q2 8 2.5 15t0.5 13q0 46 -43 46q-28 0 -46.5 -18t-26.5 -56h-71z" />
    <glyph glyph-name="uni0312" unicode="&#x312;" 
d="M248 730l-41 -63h39l-23 -84h-105l23 84l52 63h55z" />
    <glyph glyph-name="uni031B" unicode="&#x31b;" 
d="M97 483l20 92q35 0 57 5.5t36 17.5q14 14 19.5 30.5t10.5 35.5h97q-5 -22 -12 -45t-20 -44.5t-36 -41.5q-18 -15 -45.5 -26.5t-60 -17.5t-66.5 -6z" />
    <glyph glyph-name="dotbelowcomb" unicode="&#x323;" 
d="M-47 -196l27 126h120l-27 -126h-120z" />
    <glyph glyph-name="uni0324" unicode="&#x324;" 
d="M-21 -199l29 119h108l-29 -119h-108zM152 -199l29 119h108l-29 -119h-108z" />
    <glyph glyph-name="uni0326" unicode="&#x326;" 
d="M-39 -213l43 72h-40l20 94h113l-20 -94l-55 -72h-61z" />
    <glyph glyph-name="uni0328" unicode="&#x328;" 
d="M-30 -124q0 36 29.5 73t87.5 72h42l6 -21q-38 -29 -58 -51.5t-20 -42.5q0 -14 11.5 -21.5t33.5 -8.5l-43 -76q-46 6 -67.5 28t-21.5 48z" />
    <glyph glyph-name="uni032E" unicode="&#x32e;" 
d="M53 -187q-52 0 -76.5 38t-10.5 96h69q-7 -30 2.5 -52t29.5 -22q19 0 38.5 21t29.5 53h68q-9 -38 -31.5 -69t-53.5 -48t-65 -17z" />
    <glyph glyph-name="uni0331" unicode="&#x331;" 
d="M-41 -163l20 83h273l-19 -83h-274z" />
    <glyph glyph-name="uni0335" unicode="&#x335;" 
d="M49 252l17 80h265l-18 -80h-264z" />
    <glyph glyph-name="uni0394" unicode="&#x394;" horiz-adv-x="637" 
d="M-16 0v104l253 606h112l250 -606v-104h-615zM124 121h339l-170 436z" />
    <glyph glyph-name="uni03A9" unicode="&#x3a9;" horiz-adv-x="816" 
d="M44 0v102h166q-48 27 -83 67.5t-54 91.5t-19 109q0 68 25.5 130t71.5 110.5t108 76.5t135 28t134.5 -28t107.5 -76.5t71.5 -110.5t25.5 -130q0 -58 -19 -109t-53.5 -91.5t-82.5 -67.5h165v-102h-307v102q37 13 66.5 40.5t51 64.5t32.5 78.5t11 84.5q0 41 -13.5 80.5
t-40.5 71.5t-64.5 51t-84.5 19t-85 -19t-64.5 -51t-40.5 -71.5t-14 -80.5q0 -43 11.5 -84.5t32.5 -78.5t50.5 -64.5t66.5 -40.5v-102h-307z" />
    <glyph glyph-name="uni03BC" unicode="&#x3bc;" horiz-adv-x="606" 
d="M-50 -212l157 736h134l-64 -299q-3 -14 -5 -27t-2 -24q0 -70 63 -70q23 0 47 10.5t48.5 31.5t46.5 53l69 325h134l-79 -370q-1 -5 -1.5 -9t-0.5 -8q0 -22 29 -23l-24 -114q-20 -3 -35 -5t-26 -2q-36 0 -55 15t-19 42q0 7 1 17.5t6 30.5q-15 -23 -44 -48.5t-63 -42.5
t-66 -17q-34 0 -50.5 17t-19.5 42l-47 -261h-134z" />
    <glyph glyph-name="pi" unicode="&#x3c0;" horiz-adv-x="713" 
d="M519 -8q-61 0 -95.5 33.5t-34.5 95.5v285h-130v-406h-132v406h-76v116h567v-116h-96v-238q0 -29 14 -45t40 -16q12 0 26.5 4t26.5 10l19 -102q-27 -13 -63 -20t-66 -7z" />
    <glyph glyph-name="uni0400" unicode="&#x400;" horiz-adv-x="578" 
d="M161 710h460l-25 -121h-324l-36 -171h279l-24 -112h-279l-39 -185h332l-26 -121h-469zM294 916h123l26 -119l-93 -18z" />
    <glyph glyph-name="uni0401" unicode="&#x401;" horiz-adv-x="578" 
d="M161 710h460l-25 -121h-324l-36 -171h279l-24 -112h-279l-39 -185h332l-26 -121h-469zM252 790l26 119h111l-26 -119h-111zM440 790l26 119h110l-25 -119h-111z" />
    <glyph glyph-name="uni0402" unicode="&#x402;" horiz-adv-x="803" 
d="M142 0l125 589h-191l25 121h548l-26 -121h-218l-125 -589h-138zM464 -9q-28 0 -55 4t-54 13l43 110q16 -5 33 -9t37 -4q53 0 93 29t50 93q7 39 -6.5 66.5t-41.5 41.5t-66 14q-46 0 -94.5 -17t-97.5 -53l18 114q48 32 101.5 48t107.5 16q74 0 124.5 -29t73 -81.5
t11.5 -124.5q-17 -112 -91 -171.5t-186 -59.5z" />
    <glyph glyph-name="uni0403" unicode="&#x403;" horiz-adv-x="523" 
d="M4 0l150 710h436l-26 -121h-297l-125 -589h-138zM445 782l-87 17l76 119h124z" />
    <glyph glyph-name="uni0404" unicode="&#x404;" horiz-adv-x="716" 
d="M105 306l26 114h323l-23 -114h-326zM341 -6q-77 0 -136.5 31.5t-98 84t-55 118t-6.5 132.5q9 65 41.5 127.5t85.5 114t123.5 82t153.5 30.5q100 0 166 -43t92 -112l-116 -73q-12 40 -38.5 63.5t-59.5 33t-66 9.5q-52 0 -94.5 -21t-73.5 -55t-50 -76t-25 -84
q-7 -47 2.5 -90.5t33 -77t60 -53t83.5 -19.5q33 0 69.5 11t70 35t55.5 62l103 -65q-29 -53 -82.5 -90t-116 -56t-121.5 -19z" />
    <glyph glyph-name="uni0405" unicode="&#x405;" horiz-adv-x="592" 
d="M243 -8q-75 0 -145 24.5t-119 67.5l86 119q6 -9 24 -23.5t46 -29t63 -24.5t74 -10q40 0 66.5 10.5t39.5 30t13 45.5q0 27 -19.5 43t-53.5 28.5t-78 26.5q-50 16 -84 36t-51.5 48.5t-17.5 68.5q0 62 24.5 111t67 82.5t96.5 51t113 17.5q47 0 87.5 -11t74 -29t58.5 -39
l-85 -112q-3 7 -18 19t-38 23t-51 19.5t-58 8.5q-39 0 -66.5 -12t-40.5 -33t-13 -50q0 -22 15.5 -37t44.5 -25.5t71 -23.5q53 -15 92.5 -36t61.5 -52.5t22 -80.5q0 -67 -25.5 -115t-68.5 -78t-96.5 -44.5t-111.5 -14.5z" />
    <glyph glyph-name="uni0406" unicode="&#x406;" horiz-adv-x="285" 
d="M161 709h137l-151 -709h-137z" />
    <glyph glyph-name="uni0407" unicode="&#x407;" horiz-adv-x="285" 
d="M161 709h137l-151 -709h-137zM101 790l26 119h111l-26 -119h-111zM289 790l26 119h110l-25 -119h-111z" />
    <glyph glyph-name="uni0408" unicode="&#x408;" horiz-adv-x="479" 
d="M94 -11q-43 0 -77 11t-60 33l54 112q10 -9 39.5 -21.5t69.5 -12.5q38 0 64.5 15t44.5 44.5t31 74t26 104.5l77 360h138l-77 -360q-17 -81 -40 -147t-58 -114t-91.5 -73.5t-140.5 -25.5z" />
    <glyph glyph-name="uni0409" unicode="&#x409;" horiz-adv-x="1049" 
d="M-15 -4l24 119q35 0 62.5 17t52.5 59.5t49.5 117t52.5 188.5l52 213h467l-53 -254h96q79 0 129 -28t71.5 -78.5t10.5 -119.5q-9 -68 -45 -120t-94 -81t-134 -29h-269l125 589h-201l-32 -131q-34 -137 -67.5 -227.5t-75 -141.5t-95 -72t-126.5 -21zM619 115h104
q40 0 68.5 15.5t45.5 41.5t22 58q5 29 -2.5 54.5t-30.5 41.5t-66 16h-93z" />
    <glyph glyph-name="uni040A" unicode="&#x40a;" horiz-adv-x="1022" 
d="M10 0l151 710h137l-60 -282h281l60 282h138l-55 -262h97q79 0 129.5 -27.5t71.5 -77.5t11 -118q-10 -66 -46 -117t-93.5 -79.5t-134.5 -28.5h-268l65 308h-281l-66 -308h-137zM590 115h105q39 0 67.5 14.5t46 40t21.5 55.5q6 28 -2 52.5t-31 40t-66 15.5h-95z" />
    <glyph glyph-name="uni040B" unicode="&#x40b;" horiz-adv-x="765" 
d="M106 0l126 592h-156l25 118h539l-24 -118h-247l-125 -592h-138zM521 0l46 217q13 66 -14 99.5t-92 33.5q-28 0 -57 -6.5t-56 -17t-49 -24.5l19 109q37 18 84 30t99 12q74 0 123 -26t69 -80.5t7 -139.5l-43 -207h-136z" />
    <glyph glyph-name="uni040C" unicode="&#x40c;" horiz-adv-x="670" 
d="M10 0l150 710h137l-61 -287h62l269 287h165l-333 -335l192 -375h-154l-144 300h-83l-63 -300h-137zM469 782l-87 17l76 119h124z" />
    <glyph glyph-name="uni040D" unicode="&#x40d;" horiz-adv-x="733" 
d="M10 0l150 710h137l-109 -518l429 518h128l-150 -710h-137l108 502l-424 -502h-132zM351 916h123l26 -119l-93 -18z" />
    <glyph glyph-name="uni040E" unicode="&#x40e;" horiz-adv-x="653" 
d="M101 -3l25 114h59q29 0 51 13.5t38 40.5l6 9l-200 536h145l127 -403l213 403h139l-332 -586q-26 -46 -55.5 -74t-66 -40.5t-86.5 -12.5h-63zM412 775q-85 0 -129 38.5t-35 102.5h105q-4 -26 15 -42.5t53 -16.5q37 0 62.5 16t29.5 43h104q-6 -42 -33 -74t-71 -49.5
t-101 -17.5z" />
    <glyph glyph-name="uni040F" unicode="&#x40f;" horiz-adv-x="710" 
d="M204 -136l29 136h-223l151 710h137l-125 -589h288l125 589h137l-150 -710h-223l-29 -136h-117z" />
    <glyph glyph-name="uni0410" unicode="&#x410;" horiz-adv-x="645" 
d="M352 710h123l103 -710h-142l-22 177h-229l-96 -177h-142zM411 274l-31 279l-152 -279h183z" />
    <glyph glyph-name="uni0411" unicode="&#x411;" horiz-adv-x="675" 
d="M10 0l151 710h511l-24 -119h-375l-36 -171h190q79 0 128.5 -25.5t69 -72t9.5 -108.5q-9 -63 -42 -111t-88.5 -75.5t-132.5 -27.5h-361zM172 117h196q41 0 67 15t40.5 38.5t18.5 48.5q4 24 -2 45.5t-28 35t-66 13.5h-185z" />
    <glyph glyph-name="uni0412" unicode="&#x412;" horiz-adv-x="656" 
d="M161 710h364q40 0 66.5 -21t40 -54t13.5 -70q0 -41 -16.5 -80.5t-47 -71t-73.5 -49.5q44 -15 68.5 -52t24.5 -89q0 -54 -21.5 -96t-59.5 -70t-85 -42.5t-99 -14.5h-326zM361 117q19 0 38 8.5t33.5 24.5t23.5 36.5t9 43.5q0 21 -7 37.5t-20 26.5t-31 10h-196l-39 -187h189
zM404 413q18 0 35.5 8t31.5 22.5t22.5 35t8.5 45.5q0 31 -14.5 49.5t-40.5 18.5h-174l-38 -179h169z" />
    <glyph glyph-name="uni0413" unicode="&#x413;" horiz-adv-x="523" 
d="M4 0l150 710h436l-26 -121h-297l-125 -589h-138z" />
    <glyph glyph-name="uni0414" unicode="&#x414;" horiz-adv-x="803" 
d="M-39 -136l54 257h43q36 1 66 42.5t58 128.5t57 225l40 193h482l-125 -589h93l-54 -257h-120l28 136h-473l-28 -136h-121zM223 121h275l100 468h-215l-22 -106q-21 -103 -41.5 -175t-44 -117.5t-52.5 -69.5z" />
    <glyph glyph-name="uni0415" unicode="&#x415;" horiz-adv-x="578" 
d="M161 710h460l-25 -121h-324l-36 -171h279l-24 -112h-279l-39 -185h332l-26 -121h-469z" />
    <glyph glyph-name="uni0416" unicode="&#x416;" horiz-adv-x="1061" 
d="M-45 0l330 368l-188 342h143l154 -287h77l61 287h137l-61 -287h64l267 287h155l-320 -340l210 -370h-150l-167 300h-85l-63 -300h-137l63 300h-60l-273 -300h-157z" />
    <glyph glyph-name="uni0417" unicode="&#x417;" horiz-adv-x="617" 
d="M257 -7q-87 0 -151 35t-95 98l114 64q18 -41 56.5 -62.5t91.5 -21.5q43 0 72 12t46 34.5t22 53.5q7 46 -19 74.5t-88 28.5h-61l22 105h55q33 0 56.5 11.5t38 31.5t18.5 46q4 29 -4 49.5t-29.5 32t-58.5 11.5q-51 0 -92.5 -20.5t-65.5 -57.5l-90 70q48 58 112 93t154 35
q74 0 124 -22.5t73 -66.5t14 -106q-8 -47 -38 -89.5t-84 -64.5q58 -18 83.5 -65t16.5 -110q-9 -64 -49.5 -108.5t-103 -67.5t-140.5 -23z" />
    <glyph glyph-name="uni0418" unicode="&#x418;" horiz-adv-x="733" 
d="M10 0l150 710h137l-109 -518l429 518h128l-150 -710h-137l108 502l-424 -502h-132z" />
    <glyph glyph-name="uni0419" unicode="&#x419;" horiz-adv-x="733" 
d="M10 0l150 710h137l-109 -518l429 518h128l-150 -710h-137l108 502l-424 -502h-132zM458 775q-85 0 -129 38.5t-35 102.5h105q-4 -26 15 -42.5t53 -16.5q37 0 62.5 16t29.5 43h104q-6 -42 -33 -74t-71 -49.5t-101 -17.5z" />
    <glyph glyph-name="uni041A" unicode="&#x41a;" horiz-adv-x="670" 
d="M10 0l150 710h137l-61 -287h62l269 287h165l-333 -335l192 -375h-154l-144 300h-83l-63 -300h-137z" />
    <glyph glyph-name="uni041B" unicode="&#x41b;" horiz-adv-x="742" 
d="M-15 -4l24 119q35 0 62.5 17t52.5 59.5t49.5 117t52.5 188.5l52 213h477l-150 -710h-138l125 589h-211l-32 -131q-34 -137 -68 -227.5t-75 -141.5t-94.5 -72t-126.5 -21z" />
    <glyph glyph-name="uni041C" unicode="&#x41c;" horiz-adv-x="830" 
d="M161 710h148l107 -404l280 404h147l-151 -710h-137l100 470l-241 -350h-75l-92 350l-100 -470h-137z" />
    <glyph glyph-name="uni041D" unicode="&#x41d;" horiz-adv-x="718" 
d="M161 710h137l-61 -287h296l61 287h137l-151 -710h-137l64 303h-296l-64 -303h-137z" />
    <glyph glyph-name="uni041E" unicode="&#x41e;" horiz-adv-x="766" 
d="M342 -5q-78 0 -138 30t-98.5 81.5t-54.5 116t-7 132.5q10 71 45.5 135.5t90 115t123 80t144.5 29.5q79 0 138.5 -30.5t98.5 -82t54.5 -116t6.5 -133.5q-10 -72 -45 -136.5t-89.5 -114.5t-123 -78.5t-145.5 -28.5zM362 117q51 0 93 20.5t74 55t51.5 77t25.5 85.5
q6 48 -2 90.5t-31 75.5t-59.5 52t-85.5 19q-51 0 -93.5 -20.5t-74 -54.5t-51 -76t-26.5 -86q-6 -46 2 -89t31 -76.5t59.5 -53t86.5 -19.5z" />
    <glyph glyph-name="uni041F" unicode="&#x41f;" horiz-adv-x="722" 
d="M10 0l150 710h575l-150 -710h-137l125 589h-301l-125 -589h-137z" />
    <glyph glyph-name="uni0420" unicode="&#x420;" horiz-adv-x="601" 
d="M161 710h286q54 0 92.5 -28t58.5 -73t20 -95q0 -49 -21 -98.5t-57.5 -89.5t-85 -64t-102.5 -24h-155l-50 -238h-137zM368 359q21 0 40.5 11t35 30.5t24.5 45.5t9 57q0 27 -8.5 46.5t-23.5 29.5t-33 10h-140l-49 -230h145z" />
    <glyph glyph-name="uni0421" unicode="&#x421;" horiz-adv-x="710" 
d="M341 -6q-77 0 -136.5 31.5t-98 84t-55 118t-6.5 132.5q9 65 41.5 127.5t85.5 114t123.5 82t153.5 30.5q100 0 166 -43t92 -112l-116 -73q-12 40 -38.5 63.5t-59.5 33t-66 9.5q-52 0 -94.5 -21t-73.5 -55t-50 -76t-25 -84q-7 -47 2.5 -90.5t33 -77t60 -53t83.5 -19.5
q33 0 69.5 11t70 35t55.5 62l103 -65q-29 -53 -82.5 -90t-116 -56t-121.5 -19z" />
    <glyph glyph-name="uni0422" unicode="&#x422;" horiz-adv-x="592" 
d="M289 589h-213l25 121h563l-26 -121h-212l-125 -589h-138z" />
    <glyph glyph-name="uni0423" unicode="&#x423;" horiz-adv-x="653" 
d="M101 -3l25 114h59q29 0 51 13.5t38 40.5l6 9l-200 536h145l127 -403l213 403h139l-332 -586q-26 -46 -55.5 -74t-66 -40.5t-86.5 -12.5h-63z" />
    <glyph glyph-name="uni0424" unicode="&#x424;" horiz-adv-x="832" 
d="M332 77q-65 0 -121.5 21.5t-97 60.5t-58.5 94t-7 124q12 72 48.5 127.5t90.5 94.5t118.5 58.5t132.5 19.5l-15 -102q-61 0 -113 -23t-87 -67t-46 -108q-11 -65 11 -109t65 -66t93 -23zM288 0l24 111l8 21l106 502l1 20l18 91h130l-18 -91l-9 -20l-106 -503l-1 -21
l-23 -110h-130zM420 77l14 102q59 0 112.5 22.5t91.5 67.5t48 108q11 64 -10 108t-63.5 66.5t-95.5 23.5l14 102q63 -1 119.5 -21t97.5 -58.5t60 -94t8 -126.5q-11 -69 -48 -124t-92 -94.5t-121 -60.5t-135 -21z" />
    <glyph glyph-name="uni0425" unicode="&#x425;" horiz-adv-x="619" 
d="M247 350l-162 360h150l106 -264l218 264h149l-315 -360l156 -350h-149l-100 254l-208 -254h-150z" />
    <glyph glyph-name="uni0426" unicode="&#x426;" horiz-adv-x="758" 
d="M510 -135l29 135h-529l151 710h137l-125 -589h281l125 589h138l-126 -589h94l-54 -256h-121z" />
    <glyph glyph-name="uni0427" unicode="&#x427;" horiz-adv-x="685" 
d="M561 710h137l-150 -710h-138l58 273q-35 -13 -75 -21t-87 -8q-84 0 -137 27t-71 81t0 133l53 225h135l-55 -232q-14 -64 14.5 -93t105.5 -29q25 0 50.5 4t49 11t42.5 16z" />
    <glyph glyph-name="uni0428" unicode="&#x428;" horiz-adv-x="984" 
d="M10 0l150 710h137l-124 -589h212l125 589h137l-124 -589h211l125 589h138l-150 -710h-837z" />
    <glyph glyph-name="uni0429" unicode="&#x429;" horiz-adv-x="1038" 
d="M789 -136l29 136h-808l150 710h137l-124 -589h212l125 589h137l-125 -589h212l125 589h138l-126 -589h94l-55 -257h-121z" />
    <glyph glyph-name="uni042A" unicode="&#x42a;" horiz-adv-x="717" 
d="M116 0l126 596h-165l24 114h302l-54 -254h113q79 0 129 -28t71.5 -78.5t10.5 -119.5q-10 -68 -46 -120t-93.5 -81t-132.5 -29h-285zM278 115h120q41 0 69 15.5t44.5 41.5t21.5 58q5 29 -2.5 54.5t-30.5 41.5t-66 16h-109z" />
    <glyph glyph-name="uni042B" unicode="&#x42b;" horiz-adv-x="884" 
d="M10 0l150 710h137l-53 -254h102q79 0 129.5 -28t71.5 -78.5t11 -119.5q-10 -68 -46 -120t-93.5 -81t-133.5 -29h-275zM172 115h110q41 0 69 15.5t45 41.5t21 58q6 29 -2 54.5t-31 41.5t-66 16h-99zM760 709h137l-151 -709h-137z" />
    <glyph glyph-name="uni042C" unicode="&#x42c;" horiz-adv-x="638" 
d="M10 0l150 710h137l-53 -254h132q79 0 129.5 -28t71.5 -78.5t11 -119.5q-10 -68 -46.5 -120t-93.5 -81t-133 -29h-305zM172 115h140q41 0 69 15.5t45 41.5t21 58q6 29 -2 54.5t-31 41.5t-66 16h-129z" />
    <glyph glyph-name="uni042D" unicode="&#x42d;" horiz-adv-x="707" 
d="M286 -6q-70 0 -122.5 20.5t-89 57.5t-57.5 87l124 65q12 -33 35 -57.5t55 -37.5t72 -13q51 0 92.5 19.5t73 53t51.5 76.5t27 92q10 69 -6 122t-57 83t-107 30q-59 0 -108 -28t-82 -80l-99 75q53 68 127.5 111.5t181.5 43.5q84 0 143.5 -30t95.5 -81t48.5 -115t1.5 -133
q-10 -72 -44 -137t-86.5 -115.5t-121 -79.5t-148.5 -29zM263 308l23 110h310l-22 -110h-311z" />
    <glyph glyph-name="uni042E" unicode="&#x42e;" horiz-adv-x="1044" 
d="M10 0l150 710h137l-62 -292h157l-25 -120h-157l-63 -298h-137zM620 -5q-78 0 -138 30t-98.5 81.5t-54.5 116t-7 132.5q10 71 45.5 135.5t90 115t123 80t144.5 29.5q79 0 138.5 -30.5t98.5 -82t54.5 -116t6.5 -133.5q-10 -72 -45 -136.5t-89.5 -114.5t-123 -78.5
t-145.5 -28.5zM640 117q51 0 93 20.5t74 55t51.5 77t25.5 85.5q6 48 -2 90.5t-31 75.5t-59.5 52t-86.5 19t-92.5 -20.5t-74 -54.5t-51 -76t-26.5 -86q-6 -46 2 -89t30.5 -76.5t59 -53t87.5 -19.5z" />
    <glyph glyph-name="uni042F" unicode="&#x42f;" horiz-adv-x="668" 
d="M-16 0l242 310q-67 23 -96.5 79t-16.5 129q11 57 46.5 100.5t90 67.5t121.5 24h310l-150 -710h-137l56 268h-83h-10.5h-11.5l-203 -268h-158zM343 386h133l43 206h-140q-47 0 -85 -24t-47 -77q-5 -30 4 -54t32 -37.5t60 -13.5z" />
    <glyph glyph-name="uni0430" unicode="&#x430;" horiz-adv-x="624" 
d="M201 -10q-58 0 -99.5 28.5t-64 77t-22.5 109.5q0 65 23 124t63.5 105t92 72.5t108.5 26.5q54 0 92 -28.5t52 -72.5l20 90h134l-78 -368q-1 -5 -2 -9.5t-1 -8.5q0 -21 24 -22l-24 -114q-18 -3 -31.5 -5t-23.5 -2q-36 0 -56 15t-20 45q0 4 1 9.5t2 13t3 15.5
q-38 -49 -90 -75t-103 -26zM261 104q17 0 36 6.5t37.5 18t34.5 28t27 35.5l26 125q-3 29 -18 52t-37 36.5t-47 13.5q-32 0 -61.5 -16.5t-52.5 -44t-36.5 -62t-13.5 -70.5q0 -34 13 -62t36.5 -44t55.5 -16z" />
    <glyph glyph-name="uni0431" unicode="&#x431;" horiz-adv-x="626" 
d="M289 -10q-134 0 -192.5 82t-32.5 230q23 134 66.5 217t109 127t154.5 59q35 8 66.5 12t55.5 13t34 31l90 -37q-11 -46 -36 -70.5t-70 -36.5t-117 -23q-66 -10 -107.5 -33.5t-67.5 -64.5t-45 -105q33 43 83.5 68t115.5 25q68 0 114.5 -30t67.5 -83t10 -123
q-10 -75 -49 -133.5t-102 -91.5t-148 -33zM299 97q61 0 101 39t50 102q9 61 -19 100t-88 39q-37 0 -69 -17.5t-53.5 -48.5t-28.5 -73q-6 -40 5 -72t37 -50.5t65 -18.5z" />
    <glyph glyph-name="uni0432" unicode="&#x432;" horiz-adv-x="585" 
d="M270 -9q-124 0 -180.5 62t-47.5 177q7 99 48.5 166.5t111 102.5t160.5 35q85 0 130 -35t45 -97q0 -53 -36.5 -93.5t-102 -63t-152.5 -22.5q-31 0 -65 2.5t-68 6.5l14 70q35 -4 66.5 -6.5t58.5 -2.5q62 1 99 14t53.5 34t16.5 44t-16 38t-54 15q-46 0 -84 -24t-62.5 -70
t-30.5 -112q-7 -72 16.5 -110t96.5 -38q33 0 58 9t39.5 27.5t14.5 45.5q0 30 -15 46.5t-36 24t-40 7.5l38 46q15 1 37.5 -3t47 -13t46 -24t35 -37t13.5 -53q0 -53 -33.5 -91.5t-90.5 -58t-131 -19.5z" />
    <glyph glyph-name="uni0433" unicode="&#x433;" horiz-adv-x="532" 
d="M237 -10q-71 0 -115 19t-63.5 53t-18.5 78q3 62 53 98.5t160 67.5q37 13 57.5 24t29.5 24.5t10 31.5q2 26 -17 39.5t-52 13.5t-67 -16t-55 -44l-93 55q37 47 97.5 73.5t141.5 26.5q92 0 136 -39t43 -103q-3 -60 -45.5 -95t-132.5 -62q-50 -16 -77 -29.5t-37.5 -28.5
t-12.5 -33q-2 -27 20.5 -40.5t65.5 -13.5q35 0 69 16t59 45l82 -69q-39 -41 -96.5 -66.5t-141.5 -25.5z" />
    <glyph glyph-name="uni0434" unicode="&#x434;" horiz-adv-x="620" 
d="M268 -10q-87 0 -142.5 37.5t-78 99t-12.5 131.5q7 52 30 98t59 80.5t83.5 54.5t103.5 20q44 0 79 -13.5t59.5 -36.5t36.5 -54q6 77 -12 124.5t-62 69.5q-37 20 -92.5 24t-127.5 -4v104q85 10 158.5 1t128.5 -41q56 -33 88 -89t32 -140q0 -76 -14 -146.5t-45 -135.5
q-24 -53 -62.5 -94.5t-90.5 -65.5t-119 -24zM280 96q28 0 54 11.5t47 32t35 49t18 62.5q7 45 -5.5 80.5t-40 55.5t-65.5 20t-71 -19.5t-55 -54.5t-29 -83q-6 -44 7 -79.5t40.5 -55t64.5 -19.5z" />
    <glyph glyph-name="uni0435" unicode="&#x435;" horiz-adv-x="575" 
d="M263 -10q-74 0 -126 33t-78 90t-23 127q3 61 27 114t66 93.5t98 63t121 22.5q55 0 98.5 -16.5t69.5 -49.5t27 -80q3 -83 -69 -127t-224 -44q-35 0 -73.5 1.5t-80.5 5.5l16 87q35 -3 67 -4.5t66 -1.5q63 0 99.5 8.5t51.5 24.5t13 39q-1 18 -11.5 31t-28.5 19.5t-40 6.5
q-31 0 -58.5 -15t-49 -42t-34.5 -63t-15 -78q-3 -44 8 -76.5t37 -50t65 -17.5q28 0 49 7.5t36 18.5t24 21t12 16l111 -35q-9 -15 -28.5 -36.5t-50 -42.5t-73.5 -35.5t-99 -14.5z" />
    <glyph glyph-name="uni0436" unicode="&#x436;" horiz-adv-x="814" 
d="M-40 0q47 91 106 161t124 110l-128 253h133l97 -209h54l44 209h133l-44 -209h53q32 22 60.5 53t54.5 70.5t50 85.5h137q-45 -85 -98 -149.5t-107 -107.5l130 -267h-143l-101 219h-56l-46 -219h-134l46 219h-32q-39 -19 -72.5 -51t-63.5 -74.5t-56 -93.5h-141z" />
    <glyph glyph-name="uni0437" unicode="&#x437;" horiz-adv-x="503" 
d="M202 -8q-85 0 -136.5 30t-74.5 83l114 49q13 -26 38.5 -40.5t66.5 -14.5q47 0 75.5 18.5t33.5 48.5q4 28 -14 45t-59 17h-64l18 83h59q19 0 33.5 7t24.5 19t12 28q5 27 -12.5 44t-59.5 17q-35 0 -59.5 -13t-43.5 -39l-94 54q36 49 92.5 77t126.5 28q56 0 98 -17.5
t62 -51.5t13 -84q-4 -34 -25.5 -63t-60.5 -43q46 -14 65 -48t12 -80q-8 -50 -41.5 -84.5t-85 -52t-114.5 -17.5z" />
    <glyph glyph-name="uni0438" unicode="&#x438;" horiz-adv-x="595" 
d="M145 -10q-123 0 -123 128q0 18 2.5 37t7.5 41l70 328h133l-63 -299q-7 -29 -7 -50q0 -71 60 -71q24 0 48.5 10.5t49.5 31.5t46 53l69 325h134l-79 -370q-1 -5 -1.5 -9.5t-0.5 -8.5q0 -21 24 -22l-24 -114q-18 -3 -31.5 -5t-24.5 -2q-34 0 -54 14t-20 43q0 5 0.5 11
t2 15.5t4.5 21.5q-45 -53 -102.5 -80.5t-120.5 -27.5z" />
    <glyph glyph-name="uni0439" unicode="&#x439;" horiz-adv-x="595" 
d="M145 -10q-123 0 -123 128q0 18 2.5 37t7.5 41l70 328h133l-63 -299q-7 -29 -7 -50q0 -71 60 -71q24 0 48.5 10.5t49.5 31.5t46 53l69 325h134l-79 -370q-1 -5 -1.5 -9.5t-0.5 -8.5q0 -21 24 -22l-24 -114q-18 -3 -31.5 -5t-24.5 -2q-34 0 -54 14t-20 43q0 5 0.5 11
t2 15.5t4.5 21.5q-45 -53 -102.5 -80.5t-120.5 -27.5zM350 586q-48 0 -82.5 16.5t-52.5 46t-17 65.5h71q-1 -27 18.5 -48t63.5 -21q42 0 61.5 20t24.5 49h71q0 -36 -19.5 -65.5t-55 -46t-83.5 -16.5z" />
    <glyph glyph-name="uni043A" unicode="&#x43a;" horiz-adv-x="540" 
d="M4 0l111 524h134l-44 -206h52q48 32 90 86t75 120h137q-45 -85 -98 -149.5t-107 -107.5l130 -267h-144l-101 216h-56l-46 -216h-133z" />
    <glyph glyph-name="uni043B" unicode="&#x43b;" horiz-adv-x="574" 
d="M-19 0q41 131 120 263.5t193 260.5h138l70 -524h-140l-32 408q-41 -55 -72.5 -105t-57 -99t-47.5 -99t-42 -105h-130z" />
    <glyph glyph-name="uni043C" unicode="&#x43c;" horiz-adv-x="723" 
d="M4 0l111 524h142l93 -296l220 296h148l-111 -524h-127l72 341l-183 -248h-84l-80 249l-73 -342h-128z" />
    <glyph glyph-name="uni043D" unicode="&#x43d;" horiz-adv-x="600" 
d="M4 0l111 524h134l-44 -205h214l43 205h134l-111 -524h-134l46 217h-213l-46 -217h-134z" />
    <glyph glyph-name="uni043E" unicode="&#x43e;" horiz-adv-x="621" 
d="M272 -10q-85 0 -141.5 38t-80.5 99.5t-14 133.5q8 55 33 104t66.5 87t95.5 59.5t117 21.5q85 0 141.5 -37.5t81 -99t14.5 -135.5q-7 -54 -32.5 -103t-66.5 -87t-95 -59.5t-119 -21.5zM288 97q28 0 55 12.5t49.5 35t37 52.5t19.5 65q7 47 -6.5 84t-42 58.5t-67.5 21.5
q-29 0 -55.5 -12.5t-49 -34.5t-37 -52t-19.5 -66q-7 -48 7 -85t42.5 -58t66.5 -21z" />
    <glyph glyph-name="uni043F" unicode="&#x43f;" horiz-adv-x="585" 
d="M4 0l111 524h466l-112 -524h-134l90 421h-197l-90 -421h-134z" />
    <glyph glyph-name="uni0440" unicode="&#x440;" horiz-adv-x="612" 
d="M107 524h117l-19 -90q37 46 86.5 72.5t105.5 26.5q57 0 97.5 -28.5t62.5 -77.5t22 -109q0 -64 -23 -123.5t-62.5 -105.5t-90.5 -72.5t-107 -26.5q-57 0 -95 27.5t-52 74.5l-65 -305h-134zM276 104q32 0 61.5 16.5t52 44t36 62t13.5 69.5t-12.5 63t-36 44t-55.5 16
q-18 0 -37 -6.5t-37.5 -18.5t-34 -28t-26.5 -35l-27 -123q6 -29 20 -53t35.5 -37.5t47.5 -13.5z" />
    <glyph glyph-name="uni0441" unicode="&#x441;" horiz-adv-x="542" 
d="M229 -10q-70 0 -118 30t-72 80.5t-24 110.5q0 62 24 120t67.5 103.5t103.5 72t132 26.5q84 0 133.5 -37t65.5 -97l-138 -40q-10 29 -32 44.5t-53 15.5t-60.5 -14.5t-53 -41t-37 -61.5t-13.5 -75q0 -36 12 -64t34 -43.5t51 -15.5q22 0 43.5 8t39.5 22t29 32l122 -40
q-26 -39 -65 -70t-87.5 -48.5t-103.5 -17.5z" />
    <glyph glyph-name="uni0442" unicode="&#x442;" horiz-adv-x="892" 
d="M107 524h121l-21 -97q38 50 92.5 78t111.5 28q42 0 68 -13.5t38.5 -38.5t13.5 -59q28 37 61 61t69.5 37t74.5 13q46 0 71 -16t35.5 -43.5t10.5 -62.5q0 -15 -2 -36t-8 -48l-70 -327h-134l62 294q7 31 7 53q0 34 -14.5 51t-39.5 17q-24 0 -50 -14t-49 -39t-39 -57
l-64 -305h-134l62 294q4 15 5 28.5t1 25.5q0 34 -14 50.5t-40 16.5q-36 0 -74.5 -30.5t-62.5 -78.5l-65 -306h-134z" />
    <glyph glyph-name="uni0443" unicode="&#x443;" horiz-adv-x="520" 
d="M-44 -126q40 3 65.5 10t44.5 22.5t39 43.5l29 39l-87 535h137l45 -408l34 56q31 51 54.5 95.5t41 86t30.5 83.5t24 87h130q-13 -48 -29 -90.5t-38 -88.5t-55.5 -104t-83.5 -138l-80 -129q-35 -56 -67.5 -94.5t-66 -62.5t-70.5 -34.5t-81 -11.5z" />
    <glyph glyph-name="uni0444" unicode="&#x444;" horiz-adv-x="743" 
d="M198 -213l45 213h-22q-75 3 -124 40t-68.5 96t-9.5 125q11 71 50.5 130.5t103 95.5t147.5 36h34l44 207h131l-43 -207l17 -1q76 -4 125 -41t69.5 -94.5t9.5 -125.5q-11 -69 -51 -128.5t-104 -96t-146 -36.5h-32l-45 -213h-131zM254 101h18l68 323h-34q-37 0 -70 -21
t-55 -57.5t-29 -84.5q-7 -47 4 -83t36.5 -56.5t61.5 -20.5zM389 101h31q39 0 71 20.5t54.5 56.5t28.5 83q7 48 -3.5 84.5t-36 57.5t-62.5 21h-14z" />
    <glyph glyph-name="uni0445" unicode="&#x445;" horiz-adv-x="511" 
d="M175 261l-120 263h137l67 -164l5 -18l12 18l139 164h137l-232 -263l123 -261h-138l-70 163l-5 17l-12 -17l-140 -163h-138z" />
    <glyph glyph-name="uni0446" unicode="&#x446;" horiz-adv-x="625" 
d="M392 -127l28 127q-21 2 -34.5 15t-18 34.5t1.5 48.5q-43 -52 -98.5 -80t-118.5 -28q-66 0 -97.5 35.5t-31.5 97.5q0 17 2.5 35t6.5 38l70 328h133l-66 -310q-3 -12 -4.5 -23.5t-1.5 -21.5q0 -32 15 -48.5t47 -16.5q24 0 49 10.5t49.5 31.5t46.5 53l69 325h134l-75 -352
q-5 -24 -4 -37t11 -18t29 -5h29l-50 -239h-121z" />
    <glyph glyph-name="uni0447" unicode="&#x447;" horiz-adv-x="551" 
d="M298 0l42 188q-32 -13 -63.5 -19t-70.5 -6q-82 0 -123.5 44.5t-22.5 130.5l40 186h134l-36 -168q-10 -49 9.5 -71t60.5 -22q24 0 49 6t44 15l51 240h134l-111 -524h-137z" />
    <glyph glyph-name="uni0448" unicode="&#x448;" horiz-adv-x="892" 
d="M785 0h-121l21 97q-37 -50 -92 -78t-112 -28q-41 0 -67 13.5t-38.5 39t-14.5 57.5q-27 -35 -60.5 -60t-70 -37.5t-74.5 -12.5q-45 0 -70.5 16t-36 44t-10.5 62q0 15 2 36t8 47l70 328h134l-62 -294q-7 -30 -7 -53q0 -35 14.5 -51.5t39.5 -16.5t50.5 14t48.5 39t39 56
l65 306h134l-63 -294q-3 -16 -4.5 -29t-1.5 -25q0 -34 14.5 -50.5t39.5 -16.5q36 0 75 30.5t62 78.5l65 306h134z" />
    <glyph glyph-name="uni0449" unicode="&#x449;" horiz-adv-x="932" 
d="M699 -127l27 127q-24 3 -38 15t-18 33t1 51q-36 -50 -90 -79t-111 -29q-41 0 -68 13.5t-41 37.5t-17 56q-26 -34 -58 -58t-67.5 -36.5t-73.5 -12.5q-46 0 -73 17t-38.5 46t-11.5 65q0 14 2.5 33t7.5 44l70 328h134l-62 -294q-7 -29 -7 -54q0 -32 13.5 -49.5t40.5 -17.5
q25 0 50 13t48 38t40 58l65 306h134l-63 -294q-3 -14 -4.5 -27.5t-1.5 -25.5q0 -31 13 -49.5t41 -18.5q36 0 74 30t63 79l65 306h134l-74 -351q-5 -24 -4 -37.5t10.5 -18.5t28.5 -5h30l-50 -239h-121z" />
    <glyph glyph-name="uni044A" unicode="&#x44a;" horiz-adv-x="618" 
d="M329 -9q-69 0 -116.5 19.5t-72 57t-24.5 91.5q0 43 13 87t36 88.5t52 86.5h-163l22 103h303q-13 -29 -31.5 -68t-36.5 -83q17 1 32.5 1.5t33.5 0.5q105 0 153.5 -52.5t34.5 -143.5q-9 -64 -43.5 -106t-84.5 -62t-108 -20zM339 101q40 0 67.5 23t32.5 62q6 41 -14.5 68.5
t-79.5 27.5q-19 0 -36 -0.5t-35 -2.5q-10 -21 -16.5 -41t-9.5 -38q-7 -51 20 -75t71 -24z" />
    <glyph glyph-name="uni044B" unicode="&#x44b;" horiz-adv-x="762" 
d="M237 -9q-69 0 -119.5 23t-73.5 70.5t-9 122.5q15 78 35 158t41 159h134q-21 -81 -41.5 -162.5t-35.5 -162.5q-9 -50 17.5 -74.5t68.5 -24.5q40 0 66 23.5t31 62.5q6 41 -16 65t-76 24h-121l16 98h129q47 0 86 -11.5t65 -36t37.5 -61t5.5 -85.5q-10 -69 -44.5 -110.5
t-85.5 -59.5t-110 -18zM624 524h134l-111 -524h-134z" />
    <glyph glyph-name="uni044C" unicode="&#x44c;" horiz-adv-x="551" 
d="M242 -9q-71 0 -122.5 23t-75 70.5t-9.5 122.5q15 78 35 158t41 159h134q-21 -81 -41.5 -162.5t-35.5 -162.5q-6 -33 5 -55t34 -33t53 -11q46 0 76 23.5t36 62.5q6 41 -18.5 65t-83.5 24h-132l16 98h140q50 0 90.5 -11.5t68 -36t39.5 -61t6 -85.5q-11 -69 -48 -110.5
t-91 -59.5t-117 -18z" />
    <glyph glyph-name="uni044D" unicode="&#x44d;" horiz-adv-x="585" 
d="M241 -9q-56 0 -101.5 15t-77.5 44.5t-48 69.5l115 50q15 -36 45.5 -54.5t77.5 -18.5q31 0 60 12.5t52.5 34.5t39.5 52.5t22 65.5q7 51 -7.5 87.5t-45.5 56.5t-76 20q-41 0 -75 -16t-61 -52l-93 53q40 56 103.5 89t143.5 33q67 0 115 -22t77 -60.5t40 -87t3 -100.5
q-8 -53 -32 -101.5t-63 -87t-92.5 -61t-121.5 -22.5zM219 225l17 82h248l-18 -82h-247z" />
    <glyph glyph-name="uni044E" unicode="&#x44e;" horiz-adv-x="863" 
d="M4 0l111 524h134l-43 -203h130l-26 -112h-128l-44 -209h-134zM514 -10q-85 0 -141.5 38t-80.5 99.5t-14 133.5q8 55 33 104t66.5 87t95.5 59.5t117 21.5q85 0 141.5 -37.5t81 -99.5t14.5 -135q-7 -54 -32.5 -103t-66.5 -87t-95 -59.5t-119 -21.5zM529 97q29 0 56 12.5
t49 35t37 52.5t20 65q7 47 -6.5 84t-42 58.5t-67.5 21.5q-29 0 -56 -12.5t-49 -34.5t-37 -52t-20 -66q-6 -48 8 -85t42 -58t66 -21z" />
    <glyph glyph-name="uni044F" unicode="&#x44f;" horiz-adv-x="577" 
d="M-5 0l173 213q-42 19 -65 56t-18 92t38 92.5t87 57t124 19.5q52 0 93.5 -7t73 -17.5t52.5 -20.5l-103 -485h-130l38 181h-71l-140 -181h-152zM287 277h92l29 138l-11 3.5t-30.5 6.5t-44.5 3q-49 0 -80.5 -21t-34.5 -59q-2 -30 17 -50.5t63 -20.5z" />
    <glyph glyph-name="uni0450" unicode="&#x450;" horiz-adv-x="575" 
d="M263 -10q-74 0 -126 33t-78 90t-23 127q3 61 27 114t66 93.5t98 63t121 22.5q55 0 98.5 -16.5t69.5 -49.5t27 -80q3 -83 -69 -127t-224 -44q-35 0 -73.5 1.5t-80.5 5.5l16 87q35 -3 67 -4.5t66 -1.5q63 0 99.5 8.5t51.5 24.5t13 39q-1 18 -11.5 31t-28.5 19.5t-40 6.5
q-31 0 -58.5 -15t-49 -42t-34.5 -63t-15 -78q-3 -44 8 -76.5t37 -50t65 -17.5q28 0 49 7.5t36 18.5t24 21t12 16l111 -35q-9 -15 -28.5 -36.5t-50 -42.5t-73.5 -35.5t-99 -14.5zM247 730h123l26 -119l-93 -18z" />
    <glyph glyph-name="uni0451" unicode="&#x451;" horiz-adv-x="575" 
d="M263 -10q-74 0 -126 33t-78 90t-23 127q3 61 27 114t66 93.5t98 63t121 22.5q55 0 98.5 -16.5t69.5 -49.5t27 -80q3 -83 -69 -127t-224 -44q-35 0 -73.5 1.5t-80.5 5.5l16 87q35 -3 67 -4.5t66 -1.5q63 0 99.5 8.5t51.5 24.5t13 39q-1 18 -11.5 31t-28.5 19.5t-40 6.5
q-31 0 -58.5 -15t-49 -42t-34.5 -63t-15 -78q-3 -44 8 -76.5t37 -50t65 -17.5q28 0 49 7.5t36 18.5t24 21t12 16l111 -35q-9 -15 -28.5 -36.5t-50 -42.5t-73.5 -35.5t-99 -14.5zM219 604l26 119h111l-26 -119h-111zM407 604l26 119h110l-25 -119h-111z" />
    <glyph glyph-name="uni0452" unicode="&#x452;" horiz-adv-x="627" 
d="M12 0l122 547h-81l17 80h81l23 103h134l-23 -103h214l-17 -80h-214l-122 -547h-134zM271 -189q-39 -2 -67 8t-46 23.5t-26 24l-8 10.5l101 68l5 -6.5t17.5 -13t31.5 -6.5q22 0 41.5 13t36.5 40t31.5 69t25.5 101q15 80 11.5 125.5t-24 65t-60.5 19.5q-45 0 -83 -29.5
t-62 -80.5l23 131q35 43 82 70t103 27q103 0 139.5 -84.5t5.5 -239.5q-15 -73 -38 -134t-55.5 -106.5t-78 -70t-106.5 -24.5z" />
    <glyph glyph-name="uni0453" unicode="&#x453;" horiz-adv-x="532" 
d="M237 -10q-71 0 -115 19t-63.5 53t-18.5 78q3 62 53 98.5t160 67.5q37 13 57.5 24t29.5 24.5t10 31.5q2 26 -17 39.5t-52 13.5t-67 -16t-55 -44l-93 55q37 47 97.5 73.5t141.5 26.5q92 0 136 -39t43 -103q-3 -60 -45.5 -95t-132.5 -62q-50 -16 -77 -29.5t-37.5 -28.5
t-12.5 -33q-2 -27 20.5 -40.5t65.5 -13.5q35 0 69 16t59 45l82 -69q-39 -41 -96.5 -66.5t-141.5 -25.5zM368 596l-87 17l76 119h124z" />
    <glyph glyph-name="uni0454" unicode="&#x454;" horiz-adv-x="587" 
d="M259 -9q-64 0 -111 22.5t-76 61t-40 87t-4 101.5q8 52 33 100.5t65.5 87t95 60.5t120.5 22q86 0 139 -37.5t74 -96.5l-136 -40q-14 32 -38.5 46t-55.5 14q-40 0 -75 -19.5t-59 -54t-33 -83.5q-6 -45 6.5 -81t41.5 -56.5t69 -20.5q32 0 63.5 15.5t54.5 46.5l124 -40
q-26 -40 -65.5 -71t-88 -47.5t-104.5 -16.5zM95 225l17 82h248l-19 -82h-246z" />
    <glyph glyph-name="uni0455" unicode="&#x455;" horiz-adv-x="480" 
d="M186 -10q-64 0 -120.5 21t-90.5 60l67 84q38 -33 78 -50.5t81 -17.5q28 0 48 8.5t31 23t11 33.5q0 25 -22 37t-69 26q-52 17 -85.5 32.5t-49.5 37t-16 54.5q0 56 31.5 100t85 69.5t119.5 25.5q57 0 102 -17.5t80 -54.5l-71 -81q-32 30 -61.5 43.5t-64.5 13.5
q-26 0 -46.5 -7.5t-32.5 -22.5t-12 -36q0 -23 18.5 -33.5t64.5 -24.5q56 -16 92 -33.5t54 -41.5t18 -61q0 -55 -30 -97t-84 -66.5t-126 -24.5z" />
    <glyph glyph-name="uni0456" unicode="&#x456;" horiz-adv-x="253" 
d="M107 524h134l-111 -524h-134zM151 730h134l-28 -133h-134z" />
    <glyph glyph-name="uni0457" unicode="&#x457;" horiz-adv-x="253" 
d="M107 524h134l-111 -524h-134zM41 604l26 119h111l-26 -119h-111zM229 604l26 119h110l-25 -119h-111z" />
    <glyph glyph-name="uni0458" unicode="&#x458;" horiz-adv-x="258" 
d="M-83 -196q-36 0 -66.5 11.5t-51.5 35.5l76 91q9 -12 22.5 -17t27.5 -5q16 0 31 8.5t26 23.5t15 34l115 538h134l-112 -528q-12 -56 -44.5 -100t-77.5 -68t-95 -24zM156 730h134l-29 -133h-134z" />
    <glyph glyph-name="uni0459" unicode="&#x459;" horiz-adv-x="814" 
d="M539 -9q-68 0 -112.5 17.5t-68 61t-29.5 121.5l-16 223q-37 -55 -66 -106t-51.5 -100.5t-42.5 -100.5t-38 -107h-134q37 131 112 263.5t178 260.5h146l35 -315q6 -45 17 -68t30 -31.5t48 -8.5q41 0 62.5 21t22.5 58q0 33 -20.5 49.5t-66.5 16.5q-33 0 -66 -1.5t-66 -4.5
l3 104q33 2 66.5 3.5t66.5 1.5q69 0 117.5 -18.5t72 -58.5t17.5 -104q-4 -60 -35 -99t-78.5 -58.5t-103.5 -19.5z" />
    <glyph glyph-name="uni045A" unicode="&#x45a;" horiz-adv-x="860" 
d="M557 -9q-66 0 -115 22t-71.5 67t-11.5 111l6 31h-180l-47 -222h-134l111 524h134l-41 -200h178l43 200h129l-70 -332q-7 -31 1.5 -52.5t30 -32t50.5 -10.5q44 0 73.5 18.5t34.5 54.5q6 35 -13.5 53.5t-72.5 18.5h-122l22 95h127q44 0 81 -9t62.5 -29t37.5 -52.5t5 -79.5
q-9 -63 -45 -102t-89 -56.5t-114 -17.5z" />
    <glyph glyph-name="uni045B" unicode="&#x45b;" horiz-adv-x="627" 
d="M15 0l116 547h-77l16 80h78l23 103h134l-23 -103h218l-17 -80h-218l-116 -547h-134zM374 0l52 246q9 51 -8.5 78.5t-63.5 27.5q-50 0 -87.5 -28t-65.5 -78l19 128q37 45 85.5 70.5t108.5 25.5q91 0 131.5 -51.5t20.5 -144.5l-58 -274h-134z" />
    <glyph glyph-name="uni045C" unicode="&#x45c;" horiz-adv-x="540" 
d="M4 0l111 524h134l-44 -206h52q48 32 90 86t75 120h137q-45 -85 -98 -149.5t-107 -107.5l130 -267h-144l-101 216h-56l-46 -216h-133zM380 596l-87 17l76 119h124z" />
    <glyph glyph-name="uni045D" unicode="&#x45d;" horiz-adv-x="595" 
d="M145 -10q-123 0 -123 128q0 18 2.5 37t7.5 41l70 328h133l-63 -299q-7 -29 -7 -50q0 -71 60 -71q24 0 48.5 10.5t49.5 31.5t46 53l69 325h134l-79 -370q-1 -5 -1.5 -9.5t-0.5 -8.5q0 -21 24 -22l-24 -114q-18 -3 -31.5 -5t-24.5 -2q-34 0 -54 14t-20 43q0 5 0.5 11
t2 15.5t4.5 21.5q-45 -53 -102.5 -80.5t-120.5 -27.5zM243 730h123l26 -119l-93 -18z" />
    <glyph glyph-name="uni045E" unicode="&#x45e;" horiz-adv-x="520" 
d="M-44 -126q40 3 65.5 10t44.5 22.5t39 43.5l29 39l-87 535h137l45 -408l34 56q31 51 54.5 95.5t41 86t30.5 83.5t24 87h130q-13 -48 -29 -90.5t-38 -88.5t-55.5 -104t-83.5 -138l-80 -129q-35 -56 -67.5 -94.5t-66 -62.5t-70.5 -34.5t-81 -11.5zM313 586q-48 0 -82.5 16.5
t-52.5 46t-17 65.5h71q-1 -27 18.5 -48t63.5 -21q42 0 61.5 20t24.5 49h71q0 -36 -19.5 -65.5t-55 -46t-83.5 -16.5z" />
    <glyph glyph-name="uni045F" unicode="&#x45f;" horiz-adv-x="595" 
d="M145 -10q-123 0 -123 128q0 18 2.5 37t7.5 41l70 328h133l-63 -299q-7 -29 -7 -50q0 -71 60 -71q24 0 48.5 10.5t49.5 31.5t46 53l69 325h134l-79 -370q-1 -5 -1.5 -9.5t-0.5 -8.5q0 -21 24 -22l-24 -114q-18 -3 -31.5 -5t-24.5 -2q-34 0 -54 14t-20 43q0 5 0.5 11
t2 15.5t4.5 21.5q-45 -53 -102.5 -80.5t-120.5 -27.5zM141 -196l27 126h120l-27 -126h-120z" />
    <glyph glyph-name="uni0462" unicode="&#x462;" horiz-adv-x="700" 
d="M438 452q79 0 129.5 -27.5t71.5 -77.5t11 -117q-10 -68 -46 -120t-93.5 -81t-133.5 -29h-305l115 544h-124l18 83h123l22 103h138l-22 -103h162l-17 -83h-163l-19 -92h133zM510 230q5 29 -2.5 54.5t-31 41.5t-65.5 16h-129l-48 -227h140q41 0 69 15.5t45 41.5t22 58z" />
    <glyph glyph-name="uni0463" unicode="&#x463;" horiz-adv-x="807" 
d="M512 -9q-65 0 -111 23t-65 71t-3 122l22 97q15 65 4.5 90.5t-46.5 25.5q-31 0 -59.5 -20t-52.5 -60l-71 -340h-134l111 524h124l-14 -69q29 34 67.5 55t88.5 21q55 0 83.5 -23.5t35.5 -65.5t-6 -97q19 2 38 3t37 1q57 2 102 -13.5t69.5 -52t19.5 -101.5
q-4 -65 -36.5 -107.5t-85.5 -63t-118 -20.5zM524 101q47 0 75 22.5t30 62.5q3 31 -17 51t-64 19q-20 0 -40.5 -0.5t-40.5 -2.5l-13 -61q-8 -30 -0.5 -50.5t26 -30.5t44.5 -10z" />
    <glyph glyph-name="uni046A" unicode="&#x46a;" horiz-adv-x="1069" 
d="M-31 0l329 361l-201 349h144l163 -293h268l252 293h156l-307 -349l219 -361h-152l-179 293h-60l-62 -293h-137l61 293h-69l-271 -293h-154zM193 622l12 88h720l-12 -88h-720z" />
    <glyph glyph-name="uni046B" unicode="&#x46b;" horiz-adv-x="852" 
d="M-42 0l262 271l-156 253h799l-240 -253l174 -271h-155l-118 209h-39l-44 -209h-136l44 209h-40l-191 -209h-160zM317 312h211l129 143h-419z" />
    <glyph glyph-name="uni0472" unicode="&#x472;" horiz-adv-x="752" 
d="M127 326l2 74h530l-1 -74h-531zM342 -5q-78 0 -138 30t-98.5 81.5t-54.5 116t-7 132.5q10 71 45.5 135.5t90 115t123 80t144.5 29.5q79 0 138.5 -30.5t98.5 -82t54.5 -116t6.5 -133.5q-10 -72 -45 -136.5t-89.5 -114.5t-123 -78.5t-145.5 -28.5zM362 117q51 0 93 20.5
t74 55t51.5 77t25.5 85.5q6 48 -2 90.5t-31 75.5t-59.5 52t-85.5 19q-51 0 -93.5 -20.5t-74 -54.5t-51 -76t-26.5 -86q-6 -46 2 -89t31 -76.5t59.5 -53t86.5 -19.5z" />
    <glyph glyph-name="uni0473" unicode="&#x473;" horiz-adv-x="605" 
d="M97 231l1 69h410l-1 -69h-410zM256 -10q-85 0 -141.5 38t-80.5 99.5t-14 133.5q8 55 33 104t66.5 87t95.5 59.5t117 21.5q85 0 141.5 -37.5t81 -99.5t14.5 -135q-7 -54 -32.5 -103t-66.5 -87t-95 -59.5t-119 -21.5zM271 97q29 0 56 12.5t49 35t37 52.5t20 65
q7 47 -6.5 84t-42 58.5t-67.5 21.5q-29 0 -56 -12.5t-49 -34.5t-36.5 -52t-20.5 -66q-6 -48 8 -85t42 -58t66 -21z" />
    <glyph glyph-name="uni0474" unicode="&#x474;" horiz-adv-x="662" 
d="M198 0l-112 710h145l61 -530l206 395q26 49 53 78.5t63 43t83 13.5h56l-37 -114h-25q-20 0 -35.5 -6t-29 -21t-28.5 -41l-284 -528h-116z" />
    <glyph glyph-name="uni0475" unicode="&#x475;" horiz-adv-x="521" 
d="M113 0l-63 524h139l25 -413q31 43 56.5 84.5t45 82t33.5 77.5q20 53 39.5 86.5t44.5 52.5t59.5 26t83.5 7l-21 -103q-32 0 -50.5 -16t-35.5 -57q-24 -55 -56.5 -113.5t-73 -118.5t-92.5 -119h-134z" />
    <glyph glyph-name="uni048A" unicode="&#x48a;" horiz-adv-x="733" 
d="M10 0l150 710h137l-109 -518l429 518h128l-150 -710h-137l108 502l-424 -502h-132zM458 775q-85 0 -129 38.5t-35 102.5h105q-4 -26 15 -42.5t53 -16.5q37 0 62.5 16t29.5 43h104q-6 -42 -33 -74t-71 -49.5t-101 -17.5zM477 -138l93 198l62 -60h-174l26 121h234
l-122 -259h-119z" />
    <glyph glyph-name="uni048B" unicode="&#x48b;" horiz-adv-x="595" 
d="M145 -10q-123 0 -123 128q0 18 2.5 37t7.5 41l70 328h133l-63 -299q-7 -29 -7 -50q0 -71 60 -71q24 0 48.5 10.5t49.5 31.5t46 53l69 325h134l-79 -370q-1 -5 -1.5 -9.5t-0.5 -8.5q0 -21 24 -22l-24 -114q-18 -3 -31.5 -5t-24.5 -2q-34 0 -54 14t-20 43q0 5 0.5 11
t2 15.5t4.5 21.5q-45 -53 -102.5 -80.5t-120.5 -27.5zM350 586q-48 0 -82.5 16.5t-52.5 46t-17 65.5h71q-1 -27 18.5 -48t63.5 -21q42 0 61.5 20t24.5 49h71q0 -36 -19.5 -65.5t-55 -46t-83.5 -16.5zM358 -138l94 198l60 -60h-155l25 117h215l-120 -255h-119z" />
    <glyph glyph-name="uni048C" unicode="&#x48c;" horiz-adv-x="678" 
d="M84 551l17 80h379l-17 -80h-379zM44 0l150 710h138l-56 -263h141q79 0 129 -27t71 -77t10 -118q-10 -66 -46 -117t-93.5 -79.5t-133.5 -28.5h-310zM205 112h148q41 0 69 16t44.5 42.5t21.5 59.5q4 29 -3 55t-30.5 42.5t-65.5 16.5h-135z" />
    <glyph glyph-name="uni048D" unicode="&#x48d;" horiz-adv-x="592" 
d="M53 437l19 87h367l-18 -87h-368zM45 0l154 730h131l-79 -375h122q95 0 137.5 -47t30.5 -124q-9 -53 -37 -95t-72.5 -65.5t-105.5 -23.5h-281zM197 100h124q27 0 46 10.5t31 29t15 41.5q3 22 -2 39.5t-21 28t-45 10.5h-114z" />
    <glyph glyph-name="uni048E" unicode="&#x48e;" horiz-adv-x="603" 
d="M352 432l53 35l154 -249l-53 -33zM161 710h286q54 0 93.5 -28t60 -74.5t17.5 -101.5q-3 -49 -24.5 -96.5t-58 -86.5t-83.5 -62t-100 -23h-155l-50 -238h-137zM368 359q21 0 40.5 11t35 30.5t24.5 45.5t9 57q0 27 -8.5 46.5t-23.5 29.5t-33 10h-140l-49 -230h145z" />
    <glyph glyph-name="uni048F" unicode="&#x48f;" horiz-adv-x="628" 
d="M317 173l55 41l161 -218l-55 -40zM122 524h118l-20 -90q38 46 87.5 72.5t105.5 26.5q57 0 97.5 -28.5t62.5 -77.5t22 -109q0 -64 -23 -123.5t-62.5 -105.5t-90.5 -72.5t-107 -26.5q-57 0 -95 27.5t-52 74.5l-65 -305h-134zM291 99q34 0 64 16.5t53.5 43t37.5 60t14 68.5
q0 38 -13.5 68t-38 47t-57.5 17q-18 0 -37 -6.5t-37.5 -18.5t-34 -28t-26.5 -35l-29 -133q5 -28 19.5 -50t36.5 -35.5t48 -13.5z" />
    <glyph glyph-name="uni0490" unicode="&#x490;" horiz-adv-x="528" 
d="M10 0l151 710h315l32 156h120l-58 -277h-298l-125 -589h-137z" />
    <glyph glyph-name="uni0491" unicode="&#x491;" horiz-adv-x="456" 
d="M-31 -191q-30 0 -60 8.5t-57 23.5l47 100q12 -8 30.5 -13t34.5 -5q32 0 48.5 19t24.5 57l111 525h221l28 127h119l-49 -230h-206l-90 -421q-13 -56 -40.5 -99.5t-68 -67.5t-93.5 -24z" />
    <glyph glyph-name="uni0492" unicode="&#x492;" horiz-adv-x="551" 
d="M-8 273l18 89h433l-17 -89h-434zM32 0l150 710h436l-26 -121h-298l-125 -589h-137z" />
    <glyph glyph-name="uni0493" unicode="&#x493;" horiz-adv-x="470" 
d="M48 0l110 524h348l-23 -112h-213l-88 -412h-134zM1 185l18 83h368l-18 -83h-368z" />
    <glyph glyph-name="uni0494" unicode="&#x494;" horiz-adv-x="682" 
d="M329 -63q-27 0 -54.5 4.5t-54.5 13.5l50 111q15 -5 31 -9.5t33 -4.5q54 0 94 29t49 93q7 46 -6 77.5t-41 48t-67 16.5q-46 0 -94 -17t-97 -53l19 108q47 33 100 48t106 15q75 0 126 -31t74 -87.5t11 -132.5q-18 -110 -91.5 -169.5t-187.5 -59.5zM10 0l150 710h436
l-26 -121h-298l-125 -589h-137z" />
    <glyph glyph-name="uni0495" unicode="&#x495;" horiz-adv-x="540" 
d="M4 0l112 524h347l-24 -112h-213l-88 -412h-134zM221 -200q-34 0 -63.5 12.5t-49.5 28.5l60 86q8 -6 21 -11.5t30 -5.5q34 0 60.5 16.5t43.5 49.5t27 83q8 50 0 83.5t-31.5 51t-61.5 17.5q-37 0 -65.5 -14t-48.5 -39l20 95q31 29 70.5 45.5t88.5 16.5q46 0 79.5 -16.5
t53 -49t24.5 -79t-6 -105.5q-14 -80 -48 -140t-84.5 -92.5t-119.5 -32.5z" />
    <glyph glyph-name="uni0496" unicode="&#x496;" horiz-adv-x="1083" 
d="M860 -135l28 135h-54l26 121h172l-55 -256h-117zM-45 0l330 368l-188 342h143l154 -287h77l61 287h137l-61 -287h64l267 287h155l-320 -340l210 -370h-150l-167 300h-85l-63 -300h-137l63 300h-60l-273 -300h-157z" />
    <glyph glyph-name="uni0497" unicode="&#x497;" horiz-adv-x="848" 
d="M636 -127l27 127h-47l24 117h168l-52 -244h-120zM-40 0q47 91 106 161t124 110l-128 253h133l97 -209h54l44 209h133l-44 -209h53q32 22 60.5 53t54.5 70.5t50 85.5h137q-45 -85 -98 -149.5t-107 -107.5l130 -267h-143l-101 219h-56l-46 -219h-134l46 219h-32
q-39 -19 -72.5 -51t-63.5 -74.5t-56 -93.5h-141z" />
    <glyph glyph-name="uni0498" unicode="&#x498;" horiz-adv-x="617" 
d="M175 -135l41 205h121l-42 -205h-120zM257 -7q-87 0 -151 35t-95 98l114 64q18 -41 56.5 -62.5t91.5 -21.5q43 0 72 12t46 34.5t22 53.5q7 46 -19 74.5t-88 28.5h-61l22 105h55q33 0 56.5 11.5t38 31.5t18.5 46q4 29 -4 49.5t-29.5 32t-58.5 11.5q-51 0 -92.5 -20.5
t-65.5 -57.5l-90 70q48 58 112 93t154 35q74 0 124 -22.5t73 -66.5t14 -106q-8 -47 -38 -89.5t-84 -64.5q58 -18 83.5 -65t16.5 -110q-9 -64 -49.5 -108.5t-103 -67.5t-140.5 -23z" />
    <glyph glyph-name="uni0499" unicode="&#x499;" horiz-adv-x="483" 
d="M107 -127l39 182l116 2l-38 -184h-117zM202 -8q-85 0 -136.5 30t-74.5 83l114 49q13 -26 38.5 -40.5t66.5 -14.5q47 0 75.5 18.5t33.5 48.5q4 28 -14 45t-59 17h-64l18 83h59q19 0 33.5 7t24.5 19t12 28q5 27 -12.5 44t-59.5 17q-35 0 -59.5 -13t-43.5 -39l-94 54
q36 49 92.5 77t126.5 28q56 0 98 -17.5t62 -51.5t13 -84q-4 -34 -25.5 -63t-60.5 -43q46 -14 65 -48t12 -80q-8 -50 -41.5 -84.5t-85 -52t-114.5 -17.5z" />
    <glyph glyph-name="uni049A" unicode="&#x49a;" horiz-adv-x="708" 
d="M485 -135l29 135h-54l26 121h171l-55 -256h-117zM10 0l150 710h137l-61 -287h62l269 287h165l-333 -335l192 -375h-154l-144 300h-83l-63 -300h-137z" />
    <glyph glyph-name="uni049B" unicode="&#x49b;" horiz-adv-x="574" 
d="M363 -127l27 127h-47l25 117h168l-53 -244h-120zM4 0l111 524h134l-44 -206h52q48 32 90 86t75 120h137q-45 -85 -98 -149.5t-107 -107.5l130 -267h-144l-101 216h-56l-46 -216h-133z" />
    <glyph glyph-name="uni049C" unicode="&#x49c;" horiz-adv-x="687" 
d="M4 0l150 710h137l-61 -291h112l243 291h153l-291 -341l162 -369h-153l-130 303h-121l-64 -303h-137zM228 198l76 335h62l-75 -335h-63z" />
    <glyph glyph-name="uni049D" unicode="&#x49d;" horiz-adv-x="591" 
d="M4 0l111 524h129l-44 -209h103q51 32 93.5 86.5t77.5 122.5h137q-45 -85 -98.5 -149.5t-106.5 -107.5l130 -267h-144l-103 219h-109l-47 -219h-129zM204 129l62 282h59l-62 -282h-59z" />
    <glyph glyph-name="uni049E" unicode="&#x49e;" horiz-adv-x="700" 
d="M99 581l17 80h265l-18 -80h-264zM40 0l150 710h137l-61 -287h62l269 287h165l-333 -335l192 -375h-154l-144 300h-83l-63 -300h-137z" />
    <glyph glyph-name="uni049F" unicode="&#x49f;" horiz-adv-x="551" 
d="M12 0l153 721h133l-85 -403h51q49 32 90.5 86t75.5 120h137q-45 -85 -98 -149.5t-107 -107.5l130 -267h-144l-101 216h-56l-46 -216h-133zM68 552l17 80h281l-17 -80h-281z" />
    <glyph glyph-name="uni04A0" unicode="&#x4a0;" horiz-adv-x="767" 
d="M77 594l24 116h177l-24 -116h-177zM107 0l150 710h137l-61 -287h61l270 287h165l-333 -335l191 -375h-153l-144 300h-83l-63 -300h-137z" />
    <glyph glyph-name="uni04A1" unicode="&#x4a1;" horiz-adv-x="626" 
d="M54 421l21 103h258l-149 -103h-130zM90 0l111 524h134l-44 -206h52q48 32 90 86t75 120h137q-45 -85 -98 -149.5t-107 -107.5l130 -267h-144l-101 216h-56l-46 -216h-133z" />
    <glyph glyph-name="uni04A2" unicode="&#x4a2;" horiz-adv-x="758" 
d="M161 710h137l-61 -287h296l61 287h137l-151 -710h-137l64 303h-296l-64 -303h-137zM512 -135l29 135h-99l27 121h216l-55 -256h-118z" />
    <glyph glyph-name="uni04A3" unicode="&#x4a3;" horiz-adv-x="656" 
d="M4 0l111 524h134l-44 -205h214l43 205h134l-111 -524h-134l46 217h-213l-46 -217h-134zM423 -127l26 127h-98l25 117h220l-53 -244h-120z" />
    <glyph glyph-name="uni04A4" unicode="&#x4a4;" horiz-adv-x="961" 
d="M704 589l-105 121h429l-26 -121h-298zM161 710h137l-61 -287h296l61 287h137l-151 -710h-137l64 303h-296l-64 -303h-137z" />
    <glyph glyph-name="uni04A5" unicode="&#x4a5;" horiz-adv-x="773" 
d="M571 407l-102 117h340l-26 -117h-212zM4 0l111 524h134l-44 -205h214l43 205h134l-111 -524h-134l46 217h-213l-46 -217h-134z" />
    <glyph glyph-name="uni04A6" unicode="&#x4a6;" horiz-adv-x="1111" 
d="M10 0l150 710h560l-151 -710h-137l125 589h-285l-125 -589h-137zM741 -136q-57 0 -109 17l50 106q15 -5 31.5 -8t31.5 -3q59 0 99 39.5t54 119.5q15 82 -16 124t-101 42q-37 0 -77 -12t-84 -35l20 108q44 23 92.5 34.5t96.5 11.5q83 0 132.5 -33.5t67 -94t3.5 -141.5
q-25 -137 -102 -206t-189 -69z" />
    <glyph glyph-name="uni04A7" unicode="&#x4a7;" horiz-adv-x="901" 
d="M576 -195q-34 0 -63.5 8.5t-50.5 26.5l60 86q12 -8 26.5 -12t27.5 -4q39 0 66.5 20t45.5 55.5t26 83.5q9 55 0 88.5t-32.5 49t-58.5 15.5q-23 0 -51.5 -7.5t-57.5 -24.5l-40 -190h-134l87 412h-201l-87 -412h-134l110 524h470l-51 -241q38 23 74 32t73 9q56 0 96 -27
t56 -83t3 -142q-12 -75 -47.5 -136t-90 -96t-122.5 -35z" />
    <glyph glyph-name="uni04A8" unicode="&#x4a8;" horiz-adv-x="1148" 
d="M1070 81q-56 -43 -121.5 -65t-142.5 -22q-56 0 -110.5 13t-96.5 39q-51 -25 -102.5 -39.5t-111.5 -14.5q-81 0 -146.5 31.5t-109.5 87t-62 130t-4 161.5q12 74 46 136.5t85.5 106t118.5 64t143 12.5l-44 -119q-51 3 -95 -20.5t-74 -71.5t-42 -117q-10 -62 0 -114.5
t37.5 -91t71 -59.5t100.5 -21q20 0 38.5 3t37.5 9q-31 30 -52.5 74t-29 97t2.5 110q14 91 63 161t125.5 110.5t173.5 40.5q74 0 129.5 -24.5t90.5 -67t48.5 -99.5t3.5 -122q-10 -66 -42 -126t-89 -105t-142 -67q23 -2 38.5 -4t29.5 -2q62 0 111.5 21.5t91.5 53.5zM753 592
q-54 0 -98.5 -23.5t-74.5 -69t-40 -113.5q-9 -59 1.5 -107t38 -82.5t65.5 -56.5q48 12 92 33.5t79.5 53.5t59 74.5t32.5 96.5q11 66 -8 108.5t-58 64t-89 21.5z" />
    <glyph glyph-name="uni04A9" unicode="&#x4a9;" horiz-adv-x="871" 
d="M809 38q-36 -23 -84.5 -35t-96.5 -12q-43 0 -82 9.5t-67 28.5q-41 -19 -85.5 -28.5t-92.5 -9.5q-90 0 -153 34.5t-91.5 98t-15.5 146.5q9 54 37 103.5t71 87t96.5 57.5t111.5 16l-35 -99q-36 -1 -65.5 -23.5t-50.5 -58t-27 -77.5q-8 -49 6.5 -92t50 -69.5t92.5 -26.5
q9 0 18.5 1t18.5 2q-40 34 -56 84t-7 110q12 70 53 124.5t104.5 85.5t139.5 31q75 0 127 -29.5t75 -80.5t12 -117q-11 -71 -58 -130t-130 -94q6 0 11.5 -0.5t10.5 -0.5q44 0 80 12.5t71 30.5zM581 419q-41 0 -74.5 -17t-55.5 -48.5t-29 -74.5q-5 -35 3 -68.5t29 -60
t55 -40.5q47 11 85 35.5t63.5 59.5t32.5 78q7 47 -6 77.5t-40.5 44.5t-62.5 14z" />
    <glyph glyph-name="uni04AA" unicode="&#x4aa;" horiz-adv-x="710" 
d="M246 -135l29 138q-61 13 -107.5 47.5t-77 84t-42.5 108t-3 117.5q9 65 41.5 127.5t85.5 114t123.5 82t153.5 30.5q100 0 166 -43t92 -112l-116 -73q-12 40 -38.5 63.5t-59.5 33t-66 9.5q-52 0 -94.5 -21t-73.5 -55t-50 -76t-25 -84q-7 -47 2.5 -90.5t33 -77t60 -53
t83.5 -19.5q33 0 69.5 11t70 35t55.5 62l103 -65q-25 -46 -69.5 -79.5t-97.5 -54.5t-105 -28l-28 -132h-115z" />
    <glyph glyph-name="uni04AB" unicode="&#x4ab;" horiz-adv-x="542" 
d="M160 -127l26 120q-56 9 -94.5 40.5t-57.5 77.5t-19 100q0 62 24 119.5t67.5 103t103.5 72.5t132 27q84 0 133.5 -37t65.5 -97l-138 -40q-10 29 -32 44.5t-53 15.5t-60.5 -14.5t-53 -41t-37 -61.5t-13.5 -76q0 -36 12 -63.5t34 -43.5t51 -16q22 0 43.5 8.5t39.5 22.5
t29 31l122 -39q-19 -30 -47 -55.5t-62 -43.5t-72 -28l-27 -126h-117z" />
    <glyph glyph-name="uni04AC" unicode="&#x4ac;" horiz-adv-x="592" 
d="M289 589h-213l25 121h563l-26 -121h-212l-125 -589h-138zM286 -135l29 135h-99l27 121h216l-55 -256h-118z" />
    <glyph glyph-name="uni04AD" unicode="&#x4ad;" horiz-adv-x="932" 
d="M119 524h121l-21 -97q38 50 92.5 78t111.5 28q42 0 68 -13.5t38.5 -38.5t13.5 -59q28 37 61 61t69.5 37t74.5 13q46 0 71 -16t35.5 -43.5t10.5 -62.5q0 -15 -2 -36t-8 -48l-70 -327h-134l62 294q7 31 7 53q0 34 -14.5 51t-39.5 17q-24 0 -50 -14t-49 -39t-39 -57
l-64 -305h-134l62 294q4 15 5 28.5t1 25.5q0 34 -14 50.5t-40 16.5q-36 0 -74.5 -30.5t-62.5 -78.5l-65 -306h-134zM725 -127l26 127h-98l25 117h220l-53 -244h-120z" />
    <glyph glyph-name="Ustraitcy" unicode="&#x4ae;" horiz-adv-x="619" 
d="M225 250l-144 460h150l88 -342l236 342h149l-343 -462l-52 -248h-137z" />
    <glyph glyph-name="ustraitcy" unicode="&#x4af;" horiz-adv-x="517" 
d="M71 -213l46 213l-67 524h137l29 -408q36 54 64.5 104t51.5 99t43 99.5t38 105.5h121q-37 -130 -110.5 -262.5t-177.5 -260.5l-41 -214h-134z" />
    <glyph glyph-name="Ustraitstrokecy" unicode="&#x4b0;" horiz-adv-x="619" 
d="M109 159l19 87h338l-19 -87h-338zM225 250l-144 460h150l88 -342l236 342h149l-343 -462l-52 -248h-137z" />
    <glyph glyph-name="ustraitstrokecy" unicode="&#x4b1;" horiz-adv-x="517" 
d="M0 -67l14 67h336l-14 -67h-336zM71 -213l46 213l-67 524h137l29 -408q36 54 64.5 104t51.5 99t43 99.5t38 105.5h121q-37 -130 -110.5 -262.5t-177.5 -260.5l-41 -214h-134z" />
    <glyph glyph-name="uni04B2" unicode="&#x4b2;" horiz-adv-x="707" 
d="M461 -135l29 135h-54l27 121h171l-55 -256h-118zM277 350l-163 360h151l106 -264l218 264h149l-315 -360l156 -350h-149l-100 254l-208 -254h-151z" />
    <glyph glyph-name="uni04B3" unicode="&#x4b3;" horiz-adv-x="562" 
d="M339 -127l27 127h-47l24 117h160l-53 -244h-111zM187 261l-120 263h137l68 -164l4 -18l13 18l139 164h136l-232 -263l124 -261h-138l-71 163l-5 17l-12 -17l-139 -163h-138z" />
    <glyph glyph-name="uni04B4" unicode="&#x4b4;" horiz-adv-x="910" 
d="M610 589h-176h-137h-221l25 121h535zM662 -135l29 135h-519l151 710h137l-125 -589h271l125 589h138l-126 -589h94l-55 -256h-120z" />
    <glyph glyph-name="uni04B5" unicode="&#x4b5;" horiz-adv-x="761" 
d="M248 407h-166l25 117h413l-25 -117h-117h-130zM532 -127l27 127h-397l111 524h130l-87 -407h182l87 407h129l-87 -407h74l-52 -244h-117z" />
    <glyph glyph-name="uni04B6" unicode="&#x4b6;" horiz-adv-x="717" 
d="M561 710h137l-150 -710h-138l58 273q-35 -13 -75 -21t-87 -8q-84 0 -137 27t-71 81t0 133l53 225h135l-55 -232q-14 -64 14.5 -93t105.5 -29q25 0 50.5 4t49 11t42.5 16zM479 -135l29 135h-99l27 121h216l-55 -256h-118z" />
    <glyph glyph-name="uni04B7" unicode="&#x4b7;" horiz-adv-x="608" 
d="M298 0l42 188q-32 -13 -63.5 -19t-70.5 -6q-82 0 -123.5 44.5t-22.5 130.5l40 186h134l-36 -168q-10 -49 9.5 -71t60.5 -22q24 0 49 6t44 15l51 240h134l-111 -524h-137zM375 -127l26 127h-98l25 117h220l-53 -244h-120z" />
    <glyph glyph-name="uni04B8" unicode="&#x4b8;" horiz-adv-x="685" 
d="M561 710h137l-150 -710h-138l58 273q-35 -13 -75 -21t-87 -8q-84 0 -137 27t-71 81t0 133l53 225h135l-55 -232q-14 -64 14.5 -93t105.5 -29q25 0 50.5 4t49 11t42.5 16zM268 140l75 335h62l-75 -335h-62z" />
    <glyph glyph-name="uni04B9" unicode="&#x4b9;" horiz-adv-x="569" 
d="M318 0l40 188q-39 -13 -75 -19t-83 -6q-80 0 -119 44.5t-21 130.5l41 186h134l-37 -168q-9 -49 8 -71t56 -22q29 0 60 6t56 15l52 240h134l-111 -524h-135zM210 79l62 282h60l-62 -282h-60z" />
    <glyph glyph-name="uni04BA" unicode="&#x4ba;" horiz-adv-x="685" 
d="M164 0h-138l151 710h137l-58 -273q35 13 75 21t87 8q127 0 180.5 -60.5t28.5 -180.5l-48 -225h-135l49 232q14 65 -14 93.5t-105 28.5q-25 0 -51 -4t-49 -11t-42 -16z" />
    <glyph glyph-name="uni04BB" unicode="&#x4bb;" horiz-adv-x="582" 
d="M151 730h134l-65 -303q38 50 91 78t109 28q47 0 73.5 -16.5t38 -44t11.5 -62.5q0 -20 -2.5 -41t-7.5 -42l-69 -327h-134l62 294q3 14 4.5 26t1.5 23q0 37 -16 54.5t-45 17.5q-21 0 -48.5 -14t-52.5 -38.5t-41 -56.5l-65 -306h-134z" />
    <glyph glyph-name="uni04BC" unicode="&#x4bc;" horiz-adv-x="882" 
d="M495 -5q-76 0 -135.5 28.5t-99 79t-55.5 116t-6 139.5q10 73 45 137.5t88.5 114t122 77.5t146.5 28q82 0 138.5 -32.5t89 -89.5t42 -129t-4.5 -152l-128 1q18 85 4 148.5t-55 99t-104 35.5q-49 0 -91.5 -18t-74.5 -50.5t-53 -76.5t-28 -96q-7 -55 1.5 -99.5t32 -76.5
t60.5 -49t85 -17q58 0 111.5 26.5t88.5 80.5l100 -61q-33 -50 -84.5 -87t-112.5 -57t-123 -20zM273 312q-75 0 -122.5 17.5t-68 49t-16.5 71.5q3 31 19 60.5t49 60.5l68 -21q-18 -17 -28.5 -38t-10.5 -40q0 -25 20 -42.5t62 -17.5h119l-21 -100h-70zM258 312l20 100h523
l-21 -100h-522z" />
    <glyph glyph-name="uni04BD" unicode="&#x4bd;" horiz-adv-x="668" 
d="M80 436l53 -28q-13 -14 -19.5 -27.5t-6.5 -29.5q0 -18 16.5 -31t50.5 -14l77 -2l-13 -86l-56 2q-73 1 -113.5 32t-40.5 75q0 34 15 60.5t37 48.5zM357 -10q-72 0 -121.5 33t-74 90t-21.5 127q3 61 26.5 114t63.5 93.5t94 63t117 22.5q56 0 99.5 -16.5t69 -49.5t27.5 -80
q2 -83 -70 -127t-224 -44q-34 0 -73 1.5t-81 5.5l17 87q35 -3 67 -4.5t65 -1.5q64 0 100 8.5t51 24.5t14 39q-1 18 -11.5 31t-28.5 19.5t-40 6.5q-31 0 -58 -15t-48 -42t-33.5 -63t-14.5 -78q-4 -44 6.5 -76.5t36 -50t64.5 -17.5q28 0 48.5 7.5t35.5 18.5t24.5 21t12.5 16
l110 -35q-9 -15 -28 -36.5t-50 -42.5t-73.5 -35.5t-98.5 -14.5z" />
    <glyph glyph-name="uni04BE" unicode="&#x4be;" horiz-adv-x="894" 
d="M400 -135l49 232h115l-49 -232h-115zM507 -5q-76 0 -135.5 28.5t-99 79t-55.5 116t-6 139.5q10 73 44.5 137.5t88.5 114t122 77.5t146 28q83 0 139.5 -32.5t89 -89.5t42 -129t-4.5 -152l-128 1q18 85 3.5 148.5t-55 99t-103.5 35.5q-49 0 -91.5 -18t-74.5 -50.5
t-53 -76.5t-28 -96q-7 -55 1.5 -99.5t32 -76.5t60 -49t85.5 -17q58 0 111.5 26.5t88.5 80.5l99 -61q-33 -50 -84 -87t-112 -57t-123 -20zM285 312q-75 0 -122.5 17.5t-68 49t-16.5 71.5q3 31 19 60.5t48 60.5l69 -21q-18 -17 -28.5 -38t-10.5 -40q0 -25 20 -42.5t61 -17.5
h120l-21 -100h-70zM270 312l20 100h522l-20 -100h-522z" />
    <glyph glyph-name="uni04BF" unicode="&#x4bf;" horiz-adv-x="675" 
d="M255 -127l39 182l117 2l-40 -184h-116zM87 436l53 -28q-13 -14 -19.5 -27.5t-6.5 -29.5q0 -18 16.5 -31t50.5 -14l77 -2l-13 -86l-56 2q-73 1 -113.5 32t-40.5 75q0 34 15 60.5t37 48.5zM364 -10q-72 0 -121.5 33t-74 90t-21.5 127q3 61 26 114t63.5 93.5t94.5 63
t117 22.5q55 0 98.5 -16.5t69.5 -49.5t28 -80q2 -83 -70 -127t-224 -44q-34 0 -73 1.5t-81 5.5l17 87q35 -3 67 -4.5t65 -1.5q64 0 100 8.5t51 24.5t14 39q-1 18 -12 31t-28.5 19.5t-39.5 6.5q-31 0 -58 -15t-48 -42t-33.5 -63t-14.5 -78q-4 -44 6.5 -76.5t36 -50
t64.5 -17.5q27 0 48 7.5t36 18.5t24.5 21t12.5 16l110 -35q-9 -15 -28.5 -36.5t-50 -42.5t-73 -35.5t-98.5 -14.5z" />
    <glyph glyph-name="uni04C0" unicode="&#x4c0;" horiz-adv-x="285" 
d="M161 709h137l-151 -709h-137z" />
    <glyph glyph-name="uni04C1" unicode="&#x4c1;" horiz-adv-x="1061" 
d="M-45 0l330 368l-188 342h143l154 -287h77l61 287h137l-61 -287h64l267 287h155l-320 -340l210 -370h-150l-167 300h-85l-63 -300h-137l63 300h-60l-273 -300h-157zM605 775q-85 0 -129 38.5t-35 102.5h105q-4 -26 15 -42.5t53 -16.5q37 0 62.5 16t29.5 43h104
q-6 -42 -33 -74t-71 -49.5t-101 -17.5z" />
    <glyph glyph-name="uni04C2" unicode="&#x4c2;" horiz-adv-x="814" 
d="M-40 0q47 91 106 161t124 110l-128 253h133l97 -209h54l44 209h133l-44 -209h53q32 22 60.5 53t54.5 70.5t50 85.5h137q-45 -85 -98 -149.5t-107 -107.5l130 -267h-143l-101 219h-56l-46 -219h-134l46 219h-32q-39 -19 -72.5 -51t-63.5 -74.5t-56 -93.5h-141zM457 586
q-48 0 -82.5 16.5t-52.5 46t-17 65.5h71q-1 -27 18.5 -48t63.5 -21q42 0 61.5 20t24.5 49h71q0 -36 -19.5 -65.5t-55 -46t-83.5 -16.5z" />
    <glyph glyph-name="uni04C3" unicode="&#x4c3;" horiz-adv-x="698" 
d="M365 -217q-26 0 -52 5.5t-53 17.5l49 104q28 -11 50 -11q29 0 53.5 17t42 51t25.5 85q11 74 -8.5 130.5t-62 88.5t-101.5 32h-79l-64 -303h-137l151 710h136l-60 -288h71q9 0 18.5 -0.5t18.5 -1.5l239 290h157l-279 -331q50 -29 84 -77.5t48 -112t3 -137.5
q-12 -85 -49 -145.5t-89 -92t-112 -31.5z" />
    <glyph glyph-name="uni04C4" unicode="&#x4c4;" horiz-adv-x="558" 
d="M371 295q45 -21 75 -61t41.5 -94t1.5 -119q-11 -71 -42.5 -123.5t-76.5 -81t-99 -28.5q-26 0 -50.5 6.5t-45.5 16.5l47 99q25 -10 44 -10q25 0 44 16.5t31 45.5t18 65q9 54 -2.5 97t-39 68t-69.5 25h-64l-46 -217h-133l110 524h134l-44 -205h31h11t10 -1l166 206h148z
" />
    <glyph glyph-name="uni04C5" unicode="&#x4c5;" horiz-adv-x="801" 
d="M-19 -4l24 119q35 0 62.5 17t52.5 59.5t49.5 117t52.5 188.5l52 213h477l-150 -710h-138l125 589h-211l-32 -131q-34 -137 -68 -227.5t-75 -141.5t-94.5 -72t-126.5 -21zM512 -138l93 198l62 -60h-174l26 121h234l-122 -259h-119z" />
    <glyph glyph-name="uni04C6" unicode="&#x4c6;" horiz-adv-x="619" 
d="M-28 0q41 131 120 263.5t193 260.5h138l70 -524h-140l-32 408q-41 -55 -72.5 -105t-57 -99t-47.5 -99t-42 -105h-130zM365 -138l94 198l60 -60h-155l25 117h215l-120 -255h-119z" />
    <glyph glyph-name="uni04C7" unicode="&#x4c7;" horiz-adv-x="718" 
d="M161 710h137l-61 -287h296l61 287h137l-151 -710h-137l64 303h-296l-64 -303h-137zM352 -220q-27 0 -55.5 6.5t-57.5 19.5l51 104q31 -12 54 -12q29 0 49.5 15.5t34 45.5t21.5 72l19 90h138l-26 -121q-15 -73 -47.5 -122t-78 -73.5t-102.5 -24.5z" />
    </font>
</defs>
</svg>
